Индиго (Роман Прыгунов) [2008, фантастика, триллер, DVDRip]

Ответить на тему
 
Автор Сообщение

user ®

Стаж: 7 лет 7 месяцев

Сообщений: 20008

Пост Пост: #1 от 05-Авг-2013 13:55

[Цитировать]

Индиго
Жанр: фантастика, триллер
Год выпуска: 2008
Продолжительность: 01:27:56
Режиссер: Роман Прыгунов
В ролях:
Иван Янковский (Андрей), Михаил Ефремов (Петр Данилович Каляев), Мария Шукшина (Ирина Сергеевна Ардашникова), Артем Ткаченко (Павел Максимович Сошин), Елена Дробышева (Вера Каляева), Гоша Куценко (Вадим Борисович Суханов), Анастасия Ричи (Таня), Роман Шмаков (Жека), Павел Слива (Леха), Мариус Штандель (Денис), Павел Ясенок (Захар), Петр Скворцов (Тихон), Иван Мудров (Вовчик), Андрей Малахов, Лев Прыгунов, Никита Пресняков, Александр Кулиев, Николай Ефремов, Григорий Лифанов
Описание:
Они живут в разных районах Москвы. Тихон помнит всё о своей прошлой жизни. Таня понимает язык животных. Жека взламывает любую компьютерную программу. Лёха видит сквозь предметы. Андрей предчувствует опасность. Их объединяет непохожесть на других. Они - ИНДИГО. Находясь вместе, ребята чувствуют себя свободными и неуязвимыми в мире не понимающих и не принимающих их взрослых. Но уже началась охота. Кто-то методично выслеживает одаренных подростков по одному. Мир взрослых привычно отстраняется от странных подростковых проблем. Даже после пропажи одного за другим друзей главного героя - Андрея, - его отец, участковый милиционер Каляев, не верит в серьезность истории о маньяке, преследующем индиго. Не верит он и в исключительные способности своего сына, о которых ему рассказала специалист по индиго, профессор Ардашникова, обследовавшая Андрея и предлагавшая ему место в своей гимназии для особо одаренных детей. Каляев мечтает, чтобы у сына было «всё, как у людей», и не может принять его избранности...
Доп. информация:

Качество: DVDRip
Формат: AVI
Видео: 656x368 (1.78:1), 25 fps, XviD build 50 ~1012 kbps avg, 0.17 bit/pixel
Аудио: 48 kHz, MPEG Layer 3, 2 ch, ~128.00 kbps avg
Семпл

MediaInfo

Общее
Полное имя : D:\Torrent\Индиго\Индиго_745\Индиго_745.avi
Формат : AVI
Формат/Информация : Audio Video Interleave
Размер файла : 747 Мбайт
Продолжительность : 1 ч. 30 м.
Общий поток : 1150 Кбит/сек
Программа кодирования : VirtualDubMod 1.5.10.3 (build 2550/release)
Библиотека кодирования : VirtualDubMod build 2550/release
Видео
Идентификатор : 0
Формат : MPEG-4 Visual
Профиль формата : Advanced Simple@L5
Параметр BVOP формата : 1
Параметр QPel формата : Нет
Параметр GMC формата : Без точки перехода
Параметр матрицы формата : Выборочная
Идентификатор кодека : XVID
Идентификатор кодека/Подсказка : XviD
Продолжительность : 1 ч. 30 м.
Битрейт : 1013 Кбит/сек
Ширина : 656 пикселей
Высота : 368 пикселей
Соотношение сторон : 16:9
Частота кадров : 25,000 кадров/сек
Цветовое пространство : YUV
Субдискретизация насыщенности : 4:2:0
Битовая глубина : 8 бит
Тип развёртки : Прогрессивная
Метод сжатия : С потерями
Бит/(Пиксели*Кадры) : 0.168
Размер потока : 657 Мбайт (88%)
Библиотека кодирования : XviD 1.2.1 (UTC 2008-12-04)
Аудио
Идентификатор : 1
Формат : MPEG Audio
Версия формата : Version 1
Профиль формата : Layer 3
Идентификатор кодека : 55
Идентификатор кодека/Подсказка : MP3
Продолжительность : 1 ч. 30 м.
Вид битрейта : Постоянный
Битрейт : 128 Кбит/сек
Каналы : 2 канала
Частота : 48,0 КГц
Метод сжатия : С потерями
Размер потока : 83,1 Мбайт (11%)
Выравнивание : Соединение по промежуткам
Продолжительность промежутка : 40 мс. (1,00 видеокадр)
Время предзагрузки промежутка : 504 мс.
Библиотека кодирования : LAME3.99
Настройки программы : -m s -V 4 -q 0 -lowpass 17 -b 128

Скриншоты

Релиз перезалит в связи с полной переделкой 18.11.2012 в 17:30 Мск.
Просьба скачать .torrent заново!!!
Скачать

Скачать торрент!

Как скачивать? · Что такое торрент? · Рейтинг и ограничения

Сайт не распространяет и не хранит электронные версии произведений, а лишь предоставляет доступ к создаваемому пользователями каталогу ссылок на торрент-файлы, которые содержат только списки хеш-сумм

[Профиль] [ЛС]
Показать сообщения:    
Ответить на тему

Текущее время: Сегодня 06:28

Часовой пояс: GMT + 4



Вы не можете начинать темы
Вы не можете отвечать на сообщения
Вы не можете редактировать свои сообщения
Вы не можете удалять свои сообщения
Вы не можете голосовать в опросах
Вы не можете прикреплять файлы к сообщениям
Вы не можете скачивать файлы