Опасная женщина / A Dangerous Woman (Стефен Джилленхал / Stephen Gyllenhaal) [1993, США, мелодрама, драма, HDTV 1080i] DVO (НТВ+) + MVO (ТВЦ) + Original Eng

Ответить на тему
 
Автор Сообщение

user ®

Стаж: 8 лет 3 месяца

Сообщений: 20008

Пост Пост: #1 от 04-Авг-2013 16:35

[Цитировать]

Опасная женщина / A Dangerous Woman
Страна: США
Студия: Amblin Entertainment, Gramercy Pictures, Island World
Жанр: мелодрама, драма
Год выпуска: 1993
Продолжительность: 01:36:58
Перевод 1: Профессиональный (двухголосый закадровый) НТВ+
Перевод 2: Профессиональный (многоголосый закадровый) ТВЦ
Cубтитры: нет
Оригинальная аудиодорожка: английский
Режиссер: Стефен Джилленхал / Stephen Gyllenhaal
В ролях: Дебра Уингер, Барбара Херши, Гэбриэл Бирн, Джон Терри, Мэгги Джилленхол, Лори Меткаф, Джейк Джилленхол, Майлс Шеридан, Хлоя Уэбб,Ричард Риле, Вивека Дэвис
Описание: Застенчивая дурнушка Марта работает в химчистке и безуспешно воюет за правду. Она живет с тетей, почти одногодкой, и постоянно ругается с ней по пустякам. И ничего удивительного, что однажды в жизнь обеих женщин вошел один и тот же мужчина...

Доп. информация: За многоголоску спасибо Rusalochka
Тип релиза: HDTV 1080i
Контейнер: MKV
Видео: AVC 1920x1080 (16:9)) 25.0fps Bit rate 4851Kbps
Аудио 1: AC3 48.0 KHz 2ch. 192kbps rus
Аудио 2: AC3 48.0 KHz 2ch. 192kbps rus
Аудио 3: AC3 48.0 KHz 2ch. 192kbps eng

MediaInfo

General
Complete name : E:\torrent\A Dangerous Woman_HDTV 1080i.mkv
Format : Matroska
File size : 3.75 GiB
Duration : 1h 36mn
Overall bit rate : 5 537 Kbps
Encoded date : UTC 2013-08-02 06:53:06
Writing application : mkvmerge v5.7.0 ('The Whirlwind') built on Jul 8 2012 20:08:51
Writing library : libebml v1.2.3 + libmatroska v1.3.0
Video
ID : 1
Format : AVC
Format/Info : Advanced Video Codec
Format profile : High@L4.0
Format settings, CABAC : Yes
Format settings, ReFrames : 3 frames
Format settings, GOP : M=1, N=64
Muxing mode : Container profile=Unknown@4.0
Codec ID : V_MPEG4/ISO/AVC
Duration : 1h 36mn
Bit rate : 4 851 Kbps
Width : 1 920 pixels
Height : 1 080 pixels
Display aspect ratio : 16:9
Frame rate : 50.000 fps
Original frame rate : 25.000 fps
Standard : Component
Color space : YUV
Chroma subsampling : 4:2:0
Bit depth : 8 bits
Scan type : Interlaced
Scan order : Top Field First
Bits/(Pixel*Frame) : 0.047
Stream size : 3.29 GiB (88%)
Title : A Dangerous Woman_HDTV 1080i
Color primaries : BT.709-5, BT.1361, IEC 61966-2-4, SMPTE RP177
Transfer characteristics : BT.709-5, BT.1361
Matrix coefficients : BT.709-5, BT.1361, IEC 61966-2-4 709, SMPTE RP177
Audio #1
ID : 2
Format : AC-3
Format/Info : Audio Coding 3
Mode extension : CM (complete main)
Codec ID : A_AC3
Duration : 1h 36mn
Bit rate mode : Constant
Bit rate : 192 Kbps
Channel(s) : 2 channels
Channel positions : Front: L R
Sampling rate : 48.0 KHz
Bit depth : 16 bits
Stream size : 133 MiB (3%)
Title : A Dangerous Woman_AC3_DVO_NTV+
Language : Russian
Audio #2
ID : 3
Format : AC-3
Format/Info : Audio Coding 3
Mode extension : CM (complete main)
Codec ID : A_AC3
Duration : 1h 36mn
Bit rate mode : Constant
Bit rate : 192 Kbps
Channel(s) : 2 channels
Channel positions : Front: L R
Sampling rate : 48.0 KHz
Bit depth : 16 bits
Stream size : 133 MiB (3%)
Title : A Dangerous Woman_AC3_MVO_TVC
Language : Russian
Audio #3
ID : 4
Format : AC-3
Format/Info : Audio Coding 3
Mode extension : CM (complete main)
Codec ID : A_AC3
Duration : 1h 36mn
Bit rate mode : Constant
Bit rate : 192 Kbps
Channel(s) : 2 channels
Channel positions : Front: L R
Sampling rate : 48.0 KHz
Bit depth : 16 bits
Stream size : 133 MiB (3%)
Title : A Dangerous Woman_AC3_original_eng

Скриншот с названием фильма

Скриншоты

Скачать

Скачать торрент!

Как скачивать? · Что такое торрент? · Рейтинг и ограничения

Сайт не распространяет и не хранит электронные версии произведений, а лишь предоставляет доступ к создаваемому пользователями каталогу ссылок на торрент-файлы, которые содержат только списки хеш-сумм

[Профиль] [ЛС]
Показать сообщения:    
Ответить на тему

Текущее время: Сегодня 14:42

Часовой пояс: GMT + 4



Вы не можете начинать темы
Вы не можете отвечать на сообщения
Вы не можете редактировать свои сообщения
Вы не можете удалять свои сообщения
Вы не можете голосовать в опросах
Вы не можете прикреплять файлы к сообщениям
Вы не можете скачивать файлы