Легенда № 17 (Николай Лебедев) [2013, спорт, драма, биография, BDRip]

Ответить на тему
 
Автор Сообщение

user ®

Стаж: 7 лет 7 месяцев

Сообщений: 20008

Пост Пост: #1 от 04-Авг-2013 16:15

[Цитировать]

Легенда № 17
Жанр: спорт, драма, биография
Год выпуска: 2013
Продолжительность: 2ч 14м 53c
Режиссёр: Николай Лебедев
В ролях: Данила Козловский, Олег Меньшиков, Светлана Иванова, Владимир Меньшов, Роман Мадянов, Нина Усатова, Борис Щербаков, Даниэль Ольбрыхский
Описание: В фильме рассказывается о становлении советского хоккеиста Валерия Харламова.
Фильм открывают яркие воспоминания о детских переживаниях во время забега быков в Испании, откуда была родом мать Харламова. Затем действие переносится в Москву, где молодой хоккеист знакомится со знаменитым тренером Анатолием Тарасовым, который отправляет Валерия вместе с его другом Александром Гусевым в уральский Чебаркуль, где им предстоит выступать за местную «Звезду». Преодолев сложности в команде низшей лиги, Валерий показывает результативный хоккей и в конце сезона возвращается в Москву, где Тарасов приглашает его присоединиться к ЦСКА, но на первых порах проверяет характер Харламова, его способность полностью отдавать свою жизнь хоккею.
Харламов проходит испытания Тарасова и постепенно становится одним из ведущих нападающих ЦСКА, а затем и сборной СССР. Тренер создаёт тройку нападения Михайлов—Петров—Харламов. Параллельно вокруг Тарасова плетёт интриги куратор хоккея из ЦК КПСС Балашов, сына которого тренер когда-то отчислил из команды. Балашов пытается перетянуть Харламова на свою сторону, акцентируя внимание на излишней жёсткости Тарасова, но хоккеист отказывается подписывать какие-либо бумаги против своего тренера.
На фоне развития хоккейной карьеры Харламова показана и история его знакомства и любви с Ириной, которая старается поддержать хоккеиста в трудные моменты.
После скандального матча между сборной СССР и «Спартаком», когда Тарасов в знак протеста против судейства увёл сборную со льда, расстроенный Харламов попадает в аварию и серьёзно травмирует ногу. После операции Валерий начинает разрабатывать ногу с тем, чтобы как можно скорее вернуться на лёд, так как на 1972 год назначена первая в истории серия встреч сборной СССР с канадскими профессионалами. Превозмогая боль, Харламов начинает тренироваться и новый тренер сборной Всеволод Бобров, назначенный вместо Тарасова, включает Валерия в состав команды, улетающей на игры в Канаду. Тарасов приходит проводить команду в аэропорт и говорит напутственные слова Харламову.
В первом матче суперсерии в Монреале советские хоккеисты быстро пропускают две шайбы, но находят в себе силы переломить ход матча, а Харламов вносит в это существенный вклад.
Сэмпл: http://multi-up.com/890842
Качество видео: BDRip
Формат видео: AVI
Видео: 720x304 (2.37:1), 24 fps, XviD build 50, 1099 kbps avg, 0.21 bit/pixel
Аудио: 48 kHz, AC3 Dolby Digital, 3/2 (L,C,R,l,r) + LFE ch, 448 kbps

MediaInfo

Общее
Полное имя : D:\раздачи торрент\легенда № 17\Legenda.N17.2013.O.HDRip.1.46.GB.avi
Формат : AVI
Формат/Информация : Audio Video Interleave
Размер файла : 1,46 Гбайт
Продолжительность : 2 ч. 13 м.
Общий поток : 1557 Кбит/сек
Программа кодирования : VirtualDubMod 1.5.10.3 | www.virtualdub-fr.org || (build 2550/release)
Библиотека кодирования : VirtualDubMod build 2550/release
Видео
Идентификатор : 0
Формат : MPEG-4 Visual
Профиль формата : Advanced Simple@L5
Параметр BVOP формата : 1
Параметр QPel формата : Нет
Параметр GMC формата : Без точки перехода
Параметр матрицы формата : Выборочная
Идентификатор кодека : XVID
Идентификатор кодека/Подсказка : XviD
Продолжительность : 2 ч. 13 м.
Битрейт : 1100 Кбит/сек
Ширина : 720 пикселей
Высота : 304 пикселя
Соотношение сторон : 2,35:1
Частота кадров : 24,000 кадра/сек
Цветовое пространство : YUV
Субдискретизация насыщенности : 4:2:0
Битовая глубина : 8 бит
Тип развёртки : Прогрессивная
Метод сжатия : С потерями
Бит/(Пиксели*Кадры) : 0.209
Размер потока : 1,03 Гбайт (71%)
Библиотека кодирования : XviD 1.2.1 (UTC 2008-12-04)
Аудио
Идентификатор : 1
Формат : AC-3
Формат/Информация : Audio Coding 3
Расширение режима : CM (complete main)
Параметр Endianness формата : Big
Идентификатор кодека : 2000
Продолжительность : 2 ч. 13 м.
Вид битрейта : Постоянный
Битрейт : 448 Кбит/сек
Каналы : 6 каналов
Расположение каналов : Front: L C R, Side: L R, LFE
Частота : 48,0 КГц
Битовая глубина : 16 бит
Метод сжатия : С потерями
Размер потока : 429 Мбайт (29%)
Выравнивание : Разделение по промежуткам
Продолжительность промежутка : 42 мс. (1,00 видеокадр)
Время предзагрузки промежутка : 500 мс.

Скриншот c названием фильма

Скриншоты



Скачать

Скачать торрент!

Как скачивать? · Что такое торрент? · Рейтинг и ограничения

Сайт не распространяет и не хранит электронные версии произведений, а лишь предоставляет доступ к создаваемому пользователями каталогу ссылок на торрент-файлы, которые содержат только списки хеш-сумм

[Профиль] [ЛС]
Показать сообщения:    
Ответить на тему

Текущее время: Сегодня 05:57

Часовой пояс: GMT + 4



Вы не можете начинать темы
Вы не можете отвечать на сообщения
Вы не можете редактировать свои сообщения
Вы не можете удалять свои сообщения
Вы не можете голосовать в опросах
Вы не можете прикреплять файлы к сообщениям
Вы не можете скачивать файлы