Экзамен для двоих / Admission (Пол Вайц / Paul Weitz) [2013 г., США, драма, мелодрама, комедия, BDRip] Dub + Original (Eng) + Subs (Rus, Eng)

Ответить на тему
 
Автор Сообщение

user ®

Стаж: 7 лет 7 месяцев

Сообщений: 20008

Пост Пост: #1 от 04-Авг-2013 16:05

[Цитировать]

Экзамен для двоих / Admission-«Get admitted.»-
Год выпуска: 2013
Страна: США
Жанр: драма, мелодрама, комедия
Продолжительность: 01:47:07
Перевод: Профессиональный (полное дублирование) Blu-ray RUS + Оригинальная звуковая дорожка – отдельно
Субтитры: Русские [notabenoid], Английские [SDH] (*.srt)-Режиссер: Пол Вайц / Paul Weitz-В ролях: Тина Фей (Portia Nathan), Пол Радд (John Pressman), Нат Вулф (Jeremiah), Траварис Спирс (Nelson), Глория Рубен (Corinne), Лили Томлин (Susannah), Уоллес Шоун (Clarence), Майкл Шин (Mark), Олек Крупа (Polokov), Майкл Дженадри (Ben), Энн Харада (Mrs. Lafont), Бен Левин (Junior Lafont)-Описание: Полли Нельсон работает в приемной комиссии престижного университета, она - вершитель судеб многих подростков. Но как устроить собственную судьбу? Появление идеального мужчины вовсе не обещает мир и покой, наоборот, приносит в её жизнь множество дурацких ситуаций и не всегда приятных сюрпризов. А тут ещё объявляется сын, которого Полли считала потерянным, и он, увы, далеко не отличник. Что спасать в первую очередь, карьеру или личную жизнь?-Релиз от:
Автор рипа: denashekkk- -Качество: BDRip (Исходник: CHDBits/Blu-Ray Disc/1080p)
Формат: AVI
Видео: 720x304 (2.37:1), 23.976 fps, XviD build 65 ~1484 kbps avg, 0.28 bit/pixel
Аудио #1: 48 kHz, AC3 Dolby Digital, 3/2 (L,C,R,l,r) + LFE ch, ~448 kbps |DUB, Blu-ray RUS|
Аудио #2: 48 kHz, AC3 Dolby Digital, 3/2 (L,C,R,l,r) + LFE ch, ~448 kbps |ENG| (отдельным файлом)
Размер: 1488.29 Mb (1/3 DVD5)
-

MediaInfo

General
Complete name                            : C:\Downloads\Ekzamen.Dlya.Dvoih.2013.RUS.BDRip.XviD.AC3.-HELLYWOOD\Ekzamen.Dlya.Dvoih.2013.RUS.BDRip.XviD.AC3.-HELLYWOOD.avi
Format                                   : AVI
Format/Info                              : Audio Video Interleave
File size                                : 1.45 GiB
Duration                                 : 1h 47mn
Overall bit rate                         : 1 942 Kbps
Movie name                               : Экзамен для двоих / Admission (2013)
Director                                 : denashekkk (Blu-ray Disc)
Writing application                      : VirtualDubMod 1.5.10.2 (build 2542/release)
Copyright                                : hellywood.ru
Video
ID                                       : 0
Format                                   : MPEG-4 Visual
Format profile                           : Advanced Simple@L5
Format settings, BVOP                    : 2
Format settings, QPel                    : No
Format settings, GMC                     : No warppoints
Format settings, Matrix                  : Custom
Codec ID                                 : XVID
Codec ID/Hint                            : XviD
Duration                                 : 1h 47mn
Bit rate                                 : 1 485 Kbps
Width                                    : 720 pixels
Height                                   : 304 pixels
Display aspect ratio                     : 2.35:1
Frame rate                               : 23.976 fps
Color space                              : YUV
Chroma subsampling                       : 4:2:0
Bit depth                                : 8 bits
Scan type                                : Progressive
Compression mode                         : Lossy
Bits/(Pixel*Frame)                       : 0.283
Stream size                              : 1.11 GiB (76%)
Writing library                          : XviD 65
Audio
ID                                       : 1
Format                                   : AC-3
Format/Info                              : Audio Coding 3
Mode extension                           : CM (complete main)
Format settings, Endianness              : Big
Codec ID                                 : 2000
Duration                                 : 1h 47mn
Bit rate mode                            : Constant
Bit rate                                 : 448 Kbps
Channel(s)                               : 6 channels
Channel positions                        : Front: L C R, Side: L R, LFE
Sampling rate                            : 48.0 KHz
Bit depth                                : 16 bits
Compression mode                         : Lossy
Stream size                              : 343 MiB (23%)
Alignment                                : Split accross interleaves
Interleave, duration                     : 42 ms (1.00 video frame)
Interleave, preload duration             : 500 ms
Title                                    : Dub [Rus]

-
-

Скриншот c названием фильма


-

Скриншоты


-
Скачать

Скачать торрент!

Как скачивать? · Что такое торрент? · Рейтинг и ограничения

Сайт не распространяет и не хранит электронные версии произведений, а лишь предоставляет доступ к создаваемому пользователями каталогу ссылок на торрент-файлы, которые содержат только списки хеш-сумм

[Профиль] [ЛС]
Показать сообщения:    
Ответить на тему

Текущее время: Сегодня 22:33

Часовой пояс: GMT + 4



Вы не можете начинать темы
Вы не можете отвечать на сообщения
Вы не можете редактировать свои сообщения
Вы не можете удалять свои сообщения
Вы не можете голосовать в опросах
Вы не можете прикреплять файлы к сообщениям
Вы не можете скачивать файлы