Просто Джексон (Леонид Пляскин) [2012, детектив, криминал, WEB-DLRip]

Ответить на тему
 
Автор Сообщение

user ®

Стаж: 7 лет 7 месяцев

Сообщений: 20008

Пост Пост: #1 от 03-Авг-2013 21:20

[Цитировать]

Просто Джексон
Жанр: детектив, криминал
Год выпуска: 2012
Продолжительность: 01:32:00
Режиссёр: Леонид Пляскин
В ролях: Дмитрий Быковский-Ромашов, Андрей Горбачев, Екатерина Суворова, Григорий Орлов, Роман Бокашевский, Андрей Гульнев, Елизавета Прилепская, Сергей Великанов, Андрей Мокеев, Леонид Луценко, Илья Катунцев, Евгений Катаев, Дарья Юргенс, Алексей Назаров и др.
Описание: Расследуя дело о пропаже сына бывшего начальника угрозыска Дегтярёва, опер, майор Евгений Иванов по прозвищу Джексон задерживает возможного подозреваемого - Алексея Ивченко, владельца машины, в который силой увезли похищенного юношу. В салоне автомобиля Джексон находит сумку, доверху набитую деньгами в банковской упаковке, украденными во время последнего из серии ограблений и убийств инкассаторов. Задержанный Ивченко отказывается общаться со следователем Екатериной Хмелёвой, ведущей его дело, но Джексон знает, что Ивченко остаётся единственной ниточкой, связывающей оба дела - похищение Дегтярёва и разбойные нападения на инкассаторские машины...
Доп. информация:
Сценарий: Максим Есаулов, Дмитрий Филиппов, Андрей Романов, Андрей Орлов, Сергей Майоров
Продюсер: Ада Ставиская
Оператор: Александр Штанов
Композитор: Максим Кошеваров, Камиль Абдуллин
релиз -
Сэмпл: http://multi-up.com/890654
Качество видео: WEB-DLRip
Формат видео: AVI
Видео: 704x400 (1.76:1), 25 fps, XviD build 65 ~1920 kbps avg, 0.27 bit/pixel
Аудио: 48 kHz, AC3 Dolby Digital, 2/0 (L,R) ch, ~192 kbps

MediaInfo

Просто Джексон.WEBDLRip-SVAT.avi
Format : AVI
Format/Info : Audio Video Interleave
File size : 1.36 GiB
Duration : 1h 32mn
Overall bit rate : 2 122 Kbps
Writing application : VirtualDubMod 1.5.10.3 | www.virtualdub-fr.org || (build 2550/release)
Writing library : VirtualDubMod build 2550/release
Video
ID : 0
Format : MPEG-4 Visual
Format profile : Advanced Simple@L5
Format settings, BVOP : 2
Format settings, QPel : No
Format settings, GMC : No warppoints
Format settings, Matrix : Custom
Codec ID : XVID
Codec ID/Hint : XviD
Duration : 1h 32mn
Bit rate : 1 921 Kbps
Width : 704 pixels
Height : 400 pixels
Display aspect ratio : 16:9
Frame rate : 25.000 fps
Color space : YUV
Chroma subsampling : 4:2:0
Bit depth : 8 bits
Scan type : Progressive
Compression mode : Lossy
Bits/(Pixel*Frame) : 0.273
Stream size : 1.23 GiB (90%)
Writing library : XviD 65
Audio
ID : 1
Format : AC-3
Format/Info : Audio Coding 3
Mode extension : CM (complete main)
Format settings, Endianness : Big
Codec ID : 2000
Duration : 1h 32mn
Bit rate mode : Constant
Bit rate : 192 Kbps
Channel(s) : 2 channels
Channel positions : Front: L R
Sampling rate : 48.0 KHz
Bit depth : 16 bits
Compression mode : Lossy
Stream size : 126 MiB (9%)
Alignment : Split accross interleaves
Interleave, duration : 40 ms (1.00 video frame)
Interleave, preload duration : 500 ms

Скриншот c названием фильма

Скриншоты

Скачать

Скачать торрент!

Как скачивать? · Что такое торрент? · Рейтинг и ограничения

Сайт не распространяет и не хранит электронные версии произведений, а лишь предоставляет доступ к создаваемому пользователями каталогу ссылок на торрент-файлы, которые содержат только списки хеш-сумм

[Профиль] [ЛС]
Показать сообщения:    
Ответить на тему

Текущее время: Сегодня 14:14

Часовой пояс: GMT + 4



Вы не можете начинать темы
Вы не можете отвечать на сообщения
Вы не можете редактировать свои сообщения
Вы не можете удалять свои сообщения
Вы не можете голосовать в опросах
Вы не можете прикреплять файлы к сообщениям
Вы не можете скачивать файлы