Смурфики 2 / The Smurfs 2 (Раджа Госнелл / Raja Gosnell) [2013, мультфильм, фэнтези, комедия, семейный, TeleSynch] Dub

Ответить на тему
 
Автор Сообщение

user ®

Стаж: 13 лет

Сообщений: 15041

Пост Пост: #1 от 03-Авг-2013 18:05

[Цитировать]

Смурфики 2 / The Smurfs 2«Увидеть Париж и... осмурфеть!»- Страна: США
Жанр: мультфильм, фэнтези, комедия, семейный
Продолжительность: 01:37:08
Год выпуска: 2013
Перевод: Профессиональный (дублированный)
Субтитры: Отсутствуют-Режиссёр: Раджа Госнелл / Raja Gosnell-Роли озвучивали: Нил Патрик Харрис, Брендан Глисон, Джейма Мейс, Хэнк Азария, Джейкоб Тремблэ, Нэнси О’Делл, Карим Бабин, Гастон Ховард, Жослин Бланчард, Эрика Розенбаум-Роли дублировали: Нюша Шурочкина-Описание: Гаргамел создаёт Хакуса и Векси, как две капли воды похожую на смурфиков злобную парочку, надеясь всё-таки обрести магическую силу. Когда он узнаёт, что лишь настоящий смурф может дать ему то, что он хочет, и лишь Смурфетта способна превратить Хакуса и Векси в настоящих смурфов, Гаргамел похищает Смурфетту и берёт её с собой в Париж, планируя сделать её своей прислужницей. Но смурфики — Папа, Растяпа, Смельчак, Ворчун, Красавчик, Благоразумник — и их друзья из Нью-Йорка этого так не оставят. Тем более что к ним присоединился новорождённый Голубчик.-Личная оценка: ? из 10- -Качество: TeleSynch
Формат: AVI
Видео: XviD, 640x336 (1,905), 1854 Кбит/с, 29,970 fps, 0.288 bit/pixel
Аудио: MP3, 48,0 kHz, 2 ch, 160 Кбит/с-

Подробные технические данные

ОбщееПолное имя : The Smurfs 2.2013.TS.aviФормат : AVIФормат/Информация : Audio Video InterleaveРазмер файла : 1,37 ГбайтПродолжительность : 1 ч. 37 м.Общий поток : 2026 Кбит/секПрограмма кодирования : VirtualDubMod 1.5.10.2 (build 2540/release)Библиотека кодирования : VirtualDubMod build 2540/release
ВидеоИдентификатор : 0Формат : MPEG-4 VisualПрофиль формата : Advanced Simple@L5Параметр BVOP формата : 2Параметр QPel формата : НетПараметр GMC формата : Без точки переходаПараметр матрицы формата : Default (H.263)Режим смешивания : Сжатый битовый потокИдентификатор кодека : XVIDИдентификатор кодека/Подсказка : XviDПродолжительность : 1 ч. 37 м.Битрейт : 1854 Кбит/секШирина : 640 пикселейВысота : 336 пикселейСоотношение сторон : 1,905Частота кадров : 29,970 кадров/секЦветовое пространство : YUVСубдискретизация насыщенности : 4:2:0Битовая глубина : 8 битТип развёртки : ПрогрессивнаяМетод сжатия : С потерямиБит/(Пиксели*Кадры) : 0.288Размер потока : 1,26 Гбайт (92%)Библиотека кодирования : XviD 64
АудиоИдентификатор : 1Формат : MPEG AudioВерсия формата : Version 1Профиль формата : Layer 3Режим : Joint stereoИдентификатор кодека : 55Идентификатор кодека/Подсказка : MP3Продолжительность : 1 ч. 37 м.Вид битрейта : ПостоянныйБитрейт : 160 Кбит/секКаналы : 2 каналаЧастота : 48,0 КГцМетод сжатия : С потерямиРазмер потока : 111 Мбайт (8%)Выравнивание : Соединение по промежуткамПродолжительность промежутка : 33 мс. (1,00 видеокадр)Время предзагрузки промежутка : 504 мс.

Скриншоты

-
Скачать

Скачать торрент! Смурфики 2 / The Smurfs 2 (Раджа Госнелл / Raja Gosnell) [2013, мультфильм, фэнтези, комедия, семейный, TeleSynch] Dub

Как скачивать? · Что такое торрент? · Рейтинг и ограничения

Сайт не распространяет и не хранит электронные версии произведений, а лишь предоставляет доступ к создаваемому пользователями каталогу ссылок на торрент-файлы, которые содержат только списки хеш-сумм

[Профиль] [ЛС]
Показать сообщения:    
Ответить на тему

Текущее время: Сегодня 00:05

Часовой пояс: GMT + 4



Вы не можете начинать темы
Вы не можете отвечать на сообщения
Вы не можете редактировать свои сообщения
Вы не можете удалять свои сообщения
Вы не можете голосовать в опросах
Вы не можете прикреплять файлы к сообщениям
Вы не можете скачивать файлы