Дом восковых фигур / House of Wax (Жауме Серра / Jaume Collet-Serra) [2005, США, Австралия, ужасы, триллер, BDRip 1080p] Dub + MVO + Original + Subs (Rus, Eng)

Ответить на тему
 
Автор Сообщение

user ®

Стаж: 7 лет 7 месяцев

Сообщений: 20008

Пост Пост: #1 от 03-Авг-2013 18:05

[Цитировать]

Дом восковых фигур / House of Wax«Pray. Slay. Display.»- -Год выпуска: 2005
Страна: США, Австралия
Жанр: ужасы, триллер
Продолжительность: 01:52:44
Перевод №1: Профессиональный (полное дублирование)
Перевод №2: Профессиональный (многоголосый закадровый, Tycoon)
Субтитры: Русские, Английские-Режиссер: Жауме Серра / Jaume Collet-Serra
Сценарий: Чад Хэйес / Chad Hayes, Кэри Хэйес / Carey Hayes, Чарльз Белден / Charles Belden
Продюсер: Сьюзан Дауни / Susan Downey, Джоэл Силвер / Joel Silver, Роберт Земекис / Robert Zemeckis, Брюс Берман / Bruce Berman, Херб Гейнс / Herb Gains
Оператор: Стивен Ф. Уиндон / Stephen F. Windon
Композитор: Джон Оттмен / John Ottman
В ролях: Элиша Катберт (Carly Jones), Чад Майкл Мюррэй (Nick Jones), Брайан Ван Холт (Bo / Vincent), Пэрис Хилтон (Paige Edwards), Джаред Падалеки (Wade), Джон Абрахамс (Dalton Chapman), Роберт Ричард (Blake), Драгици Деберт (Trudy Sinclair), Томас Адамсон (Young Bo), Мюррэй Смит (Dr. Victor Sinclair), Сэм Харкесс (Young Vincent), Дэймон Херриман (Roadkill Driver)-Описание: Автомобиль ломается, и компании молодых людей приходится обратиться за помощью к обитателям маленького заброшенного городка. Главной достопримечательностью этой местности, безусловно, является дом с большим количеством очень уж реалистичных восковых фигур.
Страх неминуемо настигает незваных гостей, когда они узнают, что кое-кто хочет расширить свою коллекцию, заполнив весь город трупами убитых ими случайных приезжих, и покрыв их тела воском. Друзьям придется найти выход из положения, если они не хотят оказаться постоянными экспонатами Дома восковых фигур...
-
Качество: Blu-ray Rip 1080p
Формат: MKV
Видео: MPEG-4 AVC (H264), High Profile 4.1, 1920x1080, 23.976 fps, ~12450 kbps avg, bit/(pixel*frame) 0.252
Аудио №1: Russian: 48 kHz, AC3, 3/2 (L,C,R,l,r) + LFE ch, ~448.00 kbps avg //дубляж
Аудио №2: Russian: 48 kHz, AC3, 3/2 (L,C,R,l,r) + LFE ch, ~448.00 kbps avg //многоголосый закадровый (Tycoon)
Аудио №3: English: 48 kHz, AC3, 3/2 (L,C,R,l,r) + LFE ch, ~640.00 kbps avg //original
Субтитры: Russian, English, English (SDH) (Softsub SRT)
Навигация по главам: есть-

Скриншоты

Blu-Ray vs Rip






MediaInfo

G:\House of Wax [Дом восковых фигур] (2005) 1920x1080 BDRip RusEngSubsChpt.mkv
General
Unique ID : 198566814992250199536735439790297552097 (0x956293D6BF093D43882744F4001F94E1)
Complete name : G:\House of Wax [Дом восковых фигур] (2005) 1920x1080 BDRip RusEngSubsChpt.mkv
Format : Matroska
Format version : Version 4 / Version 2
File size : 11.0 GiB
Duration : 1h 52mn
Overall bit rate : 14.0 Mbps
Movie name : -=RbM=-
Encoded date : UTC 2013-08-02 12:31:10
Writing application : mkvmerge v6.3.0 ('You can't stop me!') built on Jun 28 2013 20:09:41
Writing library : libebml v1.3.0 + libmatroska v1.4.0
Video #1
ID : 1
Format : AVC
Format/Info : Advanced Video Codec
Format profile : High@L4.1
Format settings, CABAC : Yes
Format settings, ReFrames : 4 frames
Codec ID : V_MPEG4/ISO/AVC
Duration : 1h 52mn
Bit rate : 12.5 Mbps
Width : 1 920 pixels
Height : 1 080 pixels
Display aspect ratio : 16:9
Frame rate mode : Constant
Frame rate : 23.976 fps
Color space : YUV
Chroma subsampling : 4:2:0
Bit depth : 8 bits
Scan type : Progressive
Bits/(Pixel*Frame) : 0.251
Stream size : 9.59 GiB (87%)
Title : 70% of the original
Writing library : x264 core 136 r2348+704+51 d1baef6 tMod [8-bit@all X86_64]
Encoding settings : cabac=1 / ref=4 / deblock=1:-3:-3 / analyse=0x3:0x133 / me=umh / subme=10 / psy=1 / fade_compensate=0.00 / psy_rd=1.00:0.00 / mixed_ref=1 / me_range=32 / chroma_me=1 / trellis=2 / 8x8dct=1 / cqm=0 / deadzone=21,11 / fast_pskip=0 / chroma_qp_offset=-2 / threads=12 / lookahead_threads=3 / sliced_threads=0 / nr=0 / decimate=0 / interlaced=0 / bluray_compat=0 / constrained_intra=0 / fgo=0 / bframes=10 / b_pyramid=2 / b_adapt=2 / b_bias=0 / direct=3 / weightb=1 / open_gop=0 / weightp=2 / keyint=250 / keyint_min=23 / scenecut=40 / intra_refresh=0 / rc_lookahead=80 / rc=2pass / mbtree=1 / bitrate=12460 / ratetol=1.0 / qcomp=0.70 / qpmin=0:0:0 / qpmax=69:69:69 / qpstep=4 / cplxblur=20.0 / qblur=0.5 / ip_ratio=1.40 / aq=3:0.50 / aq-sensitivity=10.00 / aq-factor=1.00:1.00:1.00 / aq2=0 / aq3=0
Language : English
Default : Yes
Forced : No
Audio #2
ID : 2
Format : AC-3
Format/Info : Audio Coding 3
Mode extension : CM (complete main)
Format settings, Endianness : Big
Codec ID : A_AC3
Duration : 1h 52mn
Bit rate mode : Constant
Bit rate : 448 Kbps
Channel(s) : 6 channels
Channel positions : Front: L C R, Side: L R, LFE
Sampling rate : 48.0 KHz
Bit depth : 16 bits
Compression mode : Lossy
Stream size : 361 MiB (3%)
Title : Dub AC3 5.1ch 448kbps
Language : Russian
Default : Yes
Forced : No
Audio #3
ID : 3
Format : AC-3
Format/Info : Audio Coding 3
Mode extension : VO (voice over)
Format settings, Endianness : Big
Codec ID : A_AC3
Duration : 1h 52mn
Bit rate mode : Constant
Bit rate : 448 Kbps
Channel(s) : 6 channels
Channel positions : Front: L C R, Side: L R, LFE
Sampling rate : 48.0 KHz
Bit depth : 16 bits
Compression mode : Lossy
Stream size : 361 MiB (3%)
Title : MVO AC3 5.1ch 448kbps
Language : Russian
Default : No
Forced : No
Audio #4
ID : 4
Format : AC-3
Format/Info : Audio Coding 3
Mode extension : CM (complete main)
Format settings, Endianness : Big
Codec ID : A_AC3
Duration : 1h 52mn
Bit rate mode : Constant
Bit rate : 640 Kbps
Channel(s) : 6 channels
Channel positions : Front: L C R, Side: L R, LFE
Sampling rate : 48.0 KHz
Bit depth : 16 bits
Compression mode : Lossy
Stream size : 516 MiB (5%)
Title : Original AC3 5.1ch 640kbps
Language : English
Default : No
Forced : No
Text #5
ID : 5
Format : UTF-8
Codec ID : S_TEXT/UTF8
Codec ID/Info : UTF-8 Plain Text
Language : Russian
Default : No
Forced : No
Text #6
ID : 6
Format : UTF-8
Codec ID : S_TEXT/UTF8
Codec ID/Info : UTF-8 Plain Text
Language : English
Default : No
Forced : No
Text #7
ID : 7
Format : UTF-8
Codec ID : S_TEXT/UTF8
Codec ID/Info : UTF-8 Plain Text
Title : SDH
Language : English
Default : No
Forced : No
Menu
00:00:00.000 : :00:00:00.000
00:03:05.852 : :00:03:05.852
00:06:24.217 : :00:06:24.217
00:09:53.259 : :00:09:53.259
00:12:58.611 : :00:12:58.611
00:16:42.001 : :00:16:42.001
00:19:26.165 : :00:19:26.165
00:21:58.651 : :00:21:58.651
00:25:35.367 : :00:25:35.367
00:29:43.782 : :00:29:43.782
00:33:48.193 : :00:33:48.193
00:40:11.743 : :00:40:11.743
00:44:34.005 : :00:44:34.005
00:48:19.063 : :00:48:19.063
00:52:17.801 : :00:52:17.801
00:55:46.843 : :00:55:46.843
00:59:14.885 : :00:59:14.885
01:03:13.289 : :01:03:13.289
01:06:43.666 : :01:06:43.666
01:09:02.305 : :01:09:02.305
01:11:04.260 : :01:11:04.260
01:13:58.267 : :01:13:58.267
01:17:40.489 : :01:17:40.489
01:22:45.627 : :01:22:45.627
01:27:10.392 : :01:27:10.392
01:31:49.337 : :01:31:49.337
01:34:46.347 : :01:34:46.347
01:38:08.883 : :01:38:08.883
01:41:15.903 : :01:41:15.903
01:44:26.260 : :01:44:26.260
01:47:01.248 : :01:47:01.248

x264 log

x264 [info]: frame I:982 Avg QP:15.29 size:163505 PSNR Mean Y:51.27 U:53.34 V:55.73 Avg:52.01 Global:51.61
x264 [info]: frame P:44958 Avg QP:17.86 size: 88137 PSNR Mean Y:49.85 U:52.28 V:54.75 Avg:50.64 Global:50.08
x264 [info]: frame B:116247 Avg QP:18.80 size: 55135 PSNR Mean Y:48.56 U:51.04 V:53.75 Avg:49.39 Global:48.97
x264 [info]: consecutive B-frames: 4.9% 9.6% 17.6% 12.1% 19.2% 31.7% 2.0% 0.7% 0.4% 1.3% 0.5%
x264 [info]: mb I I16..4: 6.8% 88.7% 4.5%
x264 [info]: mb P I16..4: 2.9% 35.9% 0.9% P16..4: 36.7% 11.2% 6.2% 0.2% 0.0% skip: 6.0%
x264 [info]: mb B I16..4: 0.4% 8.3% 0.1% B16..8: 42.9% 13.8% 2.5% direct:15.2% skip:16.8% L0:40.8% L1:37.5% BI:21.8%
x264 [info]: 8x8 transform intra:91.8% inter:67.5%
x264 [info]: direct mvs spatial:98.3% temporal:1.7%
x264 [info]: coded y,uvDC,uvAC intra: 87.1% 74.3% 35.8% inter: 47.1% 40.2% 9.9%
x264 [info]: i16 v,h,dc,p: 25% 12% 18% 45%
x264 [info]: i8 v,h,dc,ddl,ddr,vr,hd,vl,hu: 18% 12% 27% 6% 6% 7% 6% 8% 9%
x264 [info]: i4 v,h,dc,ddl,ddr,vr,hd,vl,hu: 17% 9% 6% 9% 13% 14% 11% 10% 10%
x264 [info]: i8c dc,h,v,p: 38% 30% 23% 10%
x264 [info]: Weighted P-Frames: Y:2.9% UV:1.9%
x264 [info]: ref P L0: 53.7% 7.5% 22.9% 13.1% 2.7% 0.1%
x264 [info]: ref B L0: 82.5% 14.6% 2.9%
x264 [info]: ref B L1: 87.9% 12.1%
x264 [info]: SSIM Mean Y:0.9879891 (19.204db)
x264 [info]: PSNR Mean Y:48.933 U:51.399 V:54.041 Avg:49.755 Global:49.263 kb/s:12455.95
x264 [info]: encoded 162187 frames, 7.111 fps, 12455.95 kb/s, 10044 MB
x264 [info]: ended at Fri Aug 02 14:05:33 2013
x264 [info]: encoding duration 6:20:08
Скачать

Скачать торрент!

Как скачивать? · Что такое торрент? · Рейтинг и ограничения

Сайт не распространяет и не хранит электронные версии произведений, а лишь предоставляет доступ к создаваемому пользователями каталогу ссылок на торрент-файлы, которые содержат только списки хеш-сумм

[Профиль] [ЛС]
Показать сообщения:    
Ответить на тему

Текущее время: Сегодня 10:47

Часовой пояс: GMT + 4



Вы не можете начинать темы
Вы не можете отвечать на сообщения
Вы не можете редактировать свои сообщения
Вы не можете удалять свои сообщения
Вы не можете голосовать в опросах
Вы не можете прикреплять файлы к сообщениям
Вы не можете скачивать файлы