Попутчики / Поездка в прошлое / Forever Lulu / Along For The Ride (Джон Кэйи / John Kaye) [2000, Германия, США, Мелодрама, комедия, BDRip 720p] MVO (Инис) + MVO + Sub Rus + Original Eng

Ответить на тему
 
Автор Сообщение

user ®

Стаж: 7 лет 7 месяцев

Сообщений: 20008

Пост Пост: #1 от 03-Авг-2013 18:05

[Цитировать]

Попутчики / Поездка в прошлое / Forever Lulu / Along For The Ride
Страна: Германия, США
Жанр: Мелодрама, комедия
Год выпуска: 2000
Продолжительность: 01:39:47
Перевод: Профессиональный (многоголосый закадровый) Студия Инис по заказу Союз Видео
Перевод 2: Профессиональный (многоголосый закадровый)
Cубтитры: русские
Оригинальная аудиодорожка: английский
Режиссер: Джон Кэйи / John Kaye
В ролях: Мелани Гриффит, Райан Боллман, Ли Гарлингтон, Патрик Суэйзи, Пенелопа Энн Миллер, Мэттью Фэйрчайлд, Элиза Гудман, Грег Липари, Дэниэл Нэйтан Спектор, Гэбриэлль Ашри, Дэвид Дюран, Сара Дэйл, Нэн Мартин, Ник Офферман, Бинс Морокко, Дэнни Такер, Майкл Дж. Поллард, Стивен Бауэр
Описание: У Бена и Лулу когда-то была страстная интрига, которая закончилась плачевно. Сейчас, спустя 15 лет, он — преуспевающий писатель, который получает призыв о помощи. Лулу в опасности. Она открывает ему большую тайну… В результате они отправляются в поездку через всю страну…
Сэмпл: http://multi-up.com/890268
Тип релиза: BDRip 720p
Контейнер: MKV
Видео: MPEG-4 AVC, 5100 Кбит/с, 1280x718, 23.976 кадр/с
Аудио:Russian, 448 Кбит/сек, 48.0 КГц, 6 каналов, 16 бит, AC3 / Профессиональный многоголосый (Студия Инис по заказу Союз Видео)
Аудио 2: Russian, 128 Кбит/сек, 48.0 КГц, 2 каналов, 16 бит, AC3 / Профессиональный многоголосый
Аудио 3: English, 1509 Кбит/сек, 48.0 КГц, 6 каналов, 16 бит, DTS

MediaInfo

Общее
Уникальный идентификатор : 240365823213066361075018607857349736005 (0xB4D4C60E2514FDC492C5FEAEAB48B645)
Полное имя : C:\фильмы\Poputchiki.2000.x264.BDRip.720p.mkv
Формат : Matroska
Версия формата : Version 2
Размер файла : 5,01 Гбайт
Продолжительность : 1 ч. 39 м.
Общий поток : 7184 Кбит/сек
Название фильма : Forever Lulu (2000) BDRip (720p)-MediaClub-=[Викс]=
Дата кодирования : UTC 2013-08-02 06:26:30
Программа кодирования : mkvmerge v5.8.0 ('No Sleep / Pillow') built on Sep 2 2012 15:37:04
Библиотека кодирования : libebml v1.2.3 + libmatroska v1.3.0
Видео
Идентификатор : 1
Формат : AVC
Формат/Информация : Advanced Video Codec
Профиль формата : High@L4.1
Параметр CABAC формата : Да
Параметр ReFrames формата : 8 кадров
Идентификатор кодека : V_MPEG4/ISO/AVC
Продолжительность : 1 ч. 39 м.
Битрейт : 5100 Кбит/сек
Ширина : 1280 пикселей
Высота : 718 пикселей
Соотношение сторон : 16:9
Режим частоты кадров : Постоянный
Частота кадров : 23,976 кадра/сек
Цветовое пространство : YUV
Субдискретизация насыщенности : 4:2:0
Битовая глубина : 8 бит
Тип развёртки : Прогрессивная
Бит/(Пиксели*Кадры) : 0.231
Размер потока : 3,45 Гбайт (69%)
Библиотека кодирования : x264 core 133 r2334 a3ac64b
Настройки программы : cabac=1 / ref=8 / deblock=1:-3:-3 / analyse=0x3:0x113 / me=umh / subme=11 / psy=1 / psy_rd=1.00:0.00 / mixed_ref=1 / me_range=48 / chroma_me=1 / trellis=2 / 8x8dct=1 / cqm=0 / deadzone=21,11 / fast_pskip=0 / chroma_qp_offset=1 / threads=6 / lookahead_threads=1 / sliced_threads=0 / nr=0 / decimate=0 / interlaced=0 / bluray_compat=0 / constrained_intra=0 / bframes=8 / b_pyramid=2 / b_adapt=2 / b_bias=0 / direct=3 / weightb=1 / open_gop=0 / weightp=2 / keyint=240 / keyint_min=23 / scenecut=40 / intra_refresh=0 / rc_lookahead=40 / rc=2pass / mbtree=0 / bitrate=5100 / ratetol=1.0 / qcomp=0.60 / qpmin=0 / qpmax=69 / qpstep=4 / cplxblur=20.0 / qblur=0.5 / vbv_maxrate=50000 / vbv_bufsize=52500 / nal_hrd=none / ip_ratio=1.40 / pb_ratio=1.30 / aq=1:0.80
Язык : English
Default : Да
Forced : Нет
Аудио #1
Идентификатор : 2
Формат : AC-3
Формат/Информация : Audio Coding 3
Расширение режима : CM (complete main)
Параметр Endianness формата : Big
Идентификатор кодека : A_AC3
Продолжительность : 1 ч. 39 м.
Вид битрейта : Постоянный
Битрейт : 448 Кбит/сек
Каналы : 6 каналов
Расположение каналов : Front: L C R, Side: L R, LFE
Частота : 48,0 КГц
Битовая глубина : 16 бит
Метод сжатия : С потерями
Размер потока : 320 Мбайт (6%)
Заголовок : Студия Инис по заказу Союз Видео
Язык : Russian
Default : Да
Forced : Нет
Аудио #2
Идентификатор : 3
Формат : AC-3
Формат/Информация : Audio Coding 3
Расширение режима : CM (complete main)
Параметр Endianness формата : Big
Идентификатор кодека : A_AC3
Продолжительность : 1 ч. 39 м.
Вид битрейта : Постоянный
Битрейт : 128 Кбит/сек
Каналы : 2 канала
Расположение каналов : Front: L R
Частота : 48,0 КГц
Битовая глубина : 16 бит
Метод сжатия : С потерями
Размер потока : 91,4 Мбайт (2%)
Заголовок : РМ
Язык : Russian
Default : Нет
Forced : Нет
Аудио #3
Идентификатор : 4
Формат : DTS
Формат/Информация : Digital Theater Systems
Режим : 16
Параметр Endianness формата : Big
Идентификатор кодека : A_DTS
Продолжительность : 1 ч. 39 м.
Вид битрейта : Постоянный
Битрейт : 1509 Кбит/сек
Каналы : 6 каналов
Расположение каналов : Front: L C R, Side: L R, LFE
Частота : 48,0 КГц
Битовая глубина : 16 бит
Метод сжатия : С потерями
Размер потока : 1,05 Гбайт (21%)
Язык : English
Default : Нет
Forced : Нет
Текст
Идентификатор : 5
Формат : UTF-8
Идентификатор кодека : S_TEXT/UTF8
Идентификатор кодека/Информация : UTF-8 Plain Text
Язык : Russian
Default : Да
Forced : Нет
Меню
00:00:00.000 : en:00:00:00.000
00:08:35.306 : en:00:08:35.306
00:21:33.000 : en:00:21:33.000
00:32:48.008 : en:00:32:48.008
00:43:21.599 : en:00:43:21.599
01:03:01.945 : en:01:03:01.945
01:13:20.938 : en:01:13:20.938
01:33:40.949 : en:01:33:40.949

Скриншоты

Скачать

Скачать торрент!

Как скачивать? · Что такое торрент? · Рейтинг и ограничения

Сайт не распространяет и не хранит электронные версии произведений, а лишь предоставляет доступ к создаваемому пользователями каталогу ссылок на торрент-файлы, которые содержат только списки хеш-сумм

[Профиль] [ЛС]
Показать сообщения:    
Ответить на тему

Текущее время: Сегодня 06:26

Часовой пояс: GMT + 4



Вы не можете начинать темы
Вы не можете отвечать на сообщения
Вы не можете редактировать свои сообщения
Вы не можете удалять свои сообщения
Вы не можете голосовать в опросах
Вы не можете прикреплять файлы к сообщениям
Вы не можете скачивать файлы