Осенний лист (Сергей Грознов) [2012, мелодрама, DVB]

Ответить на тему
 
Автор Сообщение

user ®

Стаж: 7 лет 7 месяцев

Сообщений: 20008

Пост Пост: #1 от 03-Авг-2013 18:05

[Цитировать]

Осенний лист
Жанр: мелодрама
Год выпуска: 2012
Продолжительность: 01:27:42
Режиссер: Сергей Грознов
В ролях: Валерия Ланская, Кирилл Гребенщиков, Евгений Миллер, Алексей Панин
Описание: Ольга живет с сыном и мужем Виктором, который постоянно ей изменяет, пьянствует и избивает ее. После очередного скандала Ольга решает с ним развестись. Но когда женщина, набравшись храбрости, сообщает об этом супругу, он избивает Ольгу так, что она попадает в больницу. Вернувшись, Ольга узнает, что Виктор арестован. Оставшись одна, Ольга постепенно начинает жить полной жизнью. Она знакомится с Андреем и влюбляется в него. Андрей делает Ольге предложение. Но Ольга не может его принять, ведь формально она еще замужем. И все меньше времени остается до того дня, когда Виктор выйдет из тюрьмы...
Релиз:
Сэмпл: http://multi-up.com/767990
Качество видео: DVB (Express MD1 at 80.0°E)
Формат видео: MPEG-PS
Видео: MPEG 2, 720x576 (4:3), 25 fps, 5392 Kbps (0.520 bit/pixel)
Аудио: MP2, 48.0 KHz, 2 ch, 256 Kbps, CBR

MediaInfo

ОбщееПолное имя : L:\Раздачи\Осенний лист.mpgФормат : MPEG-PSРазмер файла : 3,53 ГбайтПродолжительность : 1 ч. 27 м.Режим общего битрейта : ПеременныйОбщий поток : 5763 Кбит/секБиблиотека кодирования : (c) 1998-2012 Womble Multimedia, Inc. / MPEG Video Wizard DVD 5.0.1.100 (03/2011) / Sep 7 2012
ВидеоИдентификатор : 224 (0xE0)Формат : MPEG VideoВерсия формата : Version 2Профиль формата : Main@MainПараметр BVOP формата : ДаПараметр матрицы формата : ВыборочнаяПродолжительность : 1 ч. 27 м.Вид битрейта : ПеременныйБитрейт : 5392 Кбит/секМаксимальный битрейт : 10000 Кбит/секШирина : 720 пикселейВысота : 576 пикселейСоотношение сторон : 4:3Частота кадров : 25,000 кадров/секСтандарт вещания : PALЦветовое пространство : YUVСубдискретизация насыщенности : 4:2:0Битовая глубина : 8 битТип развёртки : ЧересстрочнаяПорядок развёртки : Верхнее поле первоеМетод сжатия : С потерямиБит/(Пиксели*Кадры) : 0.520Размер потока : 3,30 Гбайт (94%)Библиотека кодирования : (c) 1998-2012 Womble Multimedia, Inc. / MPEG Video Wizard DVD 5.0.1.100 (03/2011) / Sep 7 2012
АудиоИдентификатор : 192 (0xC0)Формат : MPEG AudioВерсия формата : Version 1Профиль формата : Layer 2Продолжительность : 1 ч. 27 м.Вид битрейта : ПостоянныйБитрейт : 256 Кбит/секКаналы : 2 каналаЧастота : 48,0 КГцМетод сжатия : С потерямиРазмер потока : 161 Мбайт (4%)
Меню

Скриншоты


Скачать

Скачать торрент!

Как скачивать? · Что такое торрент? · Рейтинг и ограничения

Сайт не распространяет и не хранит электронные версии произведений, а лишь предоставляет доступ к создаваемому пользователями каталогу ссылок на торрент-файлы, которые содержат только списки хеш-сумм

[Профиль] [ЛС]
Показать сообщения:    
Ответить на тему

Текущее время: Сегодня 20:10

Часовой пояс: GMT + 4



Вы не можете начинать темы
Вы не можете отвечать на сообщения
Вы не можете редактировать свои сообщения
Вы не можете удалять свои сообщения
Вы не можете голосовать в опросах
Вы не можете прикреплять файлы к сообщениям
Вы не можете скачивать файлы