Разрешите тебя поцеловать... снова (Юрий Морозов) [2012, мелодрама, комедия, DVDRip]

Ответить на тему
 
Автор Сообщение

user ®

Стаж: 7 лет 7 месяцев

Сообщений: 20008

Пост Пост: #1 от 03-Авг-2013 18:05

[Цитировать]

Разрешите тебя поцеловать... снова
Жанр: мелодрама, комедия
Год выпуска: 2012
Продолжительность: 01:45:36
Режиссёр: Юрий Морозов
В ролях:
Игорь Лифанов, Мария Куликова, Борис Щербаков, Виолетта Вакорина, Александр Ратников, Аполлинария Муравьёва, Алёна Корнева, Ирина Егорова, Константин Ужва, Ксения Баскакова, Анастасия Красильникова, Анна Ещенко, Наталья Колдашова, Юрий Морозов
Описание:
Мы встречаемся с полюбившимися героями через три года, в новогоднюю ночь. Именно тогда разжалованный в майоры Григорий Власов намеревается сделать, наконец, предложение руки и сердца своей подруге Наталье. Но в самый ответственный момент звонит генерал и сообщает Власову две хорошие новости: ему возвращено звание подполковника, и его ждёт новый ответственный пост в Подмосковье. Власов в срочном порядке вылетает в Москву, так и не сделав предложения Наталье. А на месте выясняется, что командовать ему снова придётся молодыми строптивыми женщинами, да ещё и из непростых семей...
Доп. информация:

Качество видео: DVDRip
Формат видео: AVI
Видео: 720x400 (1.80:1), 25 fps, XviD build 65 ~1769 kbps avg, 0.25 bit/pixel
Аудио: 48 kHz, AC3 Dolby Digital, 2/0 (L,R) ch, ~192 kbps
Семпл

MediaInfo

Общее
Полное имя : D:\Torrent\Разрешите тебя поцеловать... снова\Разрешите тебя поцеловать... снова_1.46\Разрешите тебя поцеловать... снова_1.46.avi
Формат : AVI
Формат/Информация : Audio Video Interleave
Размер файла : 1,45 Гбайт
Продолжительность : 1 ч. 45 м.
Общий поток : 1972 Кбит/сек
Программа кодирования : VirtualDubMod 1.5.10.3 | www.virtualdub-fr.org || (build 2550/release)
Библиотека кодирования : VirtualDubMod build 2550/release
Видео
Идентификатор : 0
Формат : MPEG-4 Visual
Профиль формата : Advanced Simple@L5
Параметр BVOP формата : 1
Параметр QPel формата : Нет
Параметр GMC формата : Без точки перехода
Параметр матрицы формата : Выборочная
Идентификатор кодека : XVID
Идентификатор кодека/Подсказка : XviD
Продолжительность : 1 ч. 45 м.
Битрейт : 1770 Кбит/сек
Ширина : 720 пикселей
Высота : 400 пикселей
Соотношение сторон : 16:9
Частота кадров : 25,000 кадров/сек
Цветовое пространство : YUV
Субдискретизация насыщенности : 4:2:0
Битовая глубина : 8 бит
Тип развёртки : Прогрессивная
Метод сжатия : С потерями
Бит/(Пиксели*Кадры) : 0.246
Размер потока : 1,31 Гбайт (90%)
Библиотека кодирования : XviD 65
Аудио
Идентификатор : 1
Формат : AC-3
Формат/Информация : Audio Coding 3
Расширение режима : CM (complete main)
Параметр Endianness формата : Big
Идентификатор кодека : 2000
Продолжительность : 1 ч. 45 м.
Вид битрейта : Постоянный
Битрейт : 192 Кбит/сек
Каналы : 2 канала
Расположение каналов : Front: L R
Частота : 48,0 КГц
Битовая глубина : 16 бит
Метод сжатия : С потерями
Размер потока : 145 Мбайт (10%)
Выравнивание : Разделение по промежуткам
Продолжительность промежутка : 40 мс. (1,00 видеокадр)
Время предзагрузки промежутка : 500 мс.

Скриншот c названием фильма

Скриншоты

Скачать

Скачать торрент!

Как скачивать? · Что такое торрент? · Рейтинг и ограничения

Сайт не распространяет и не хранит электронные версии произведений, а лишь предоставляет доступ к создаваемому пользователями каталогу ссылок на торрент-файлы, которые содержат только списки хеш-сумм

[Профиль] [ЛС]
Показать сообщения:    
Ответить на тему

Текущее время: Сегодня 00:23

Часовой пояс: GMT + 4



Вы не можете начинать темы
Вы не можете отвечать на сообщения
Вы не можете редактировать свои сообщения
Вы не можете удалять свои сообщения
Вы не можете голосовать в опросах
Вы не можете прикреплять файлы к сообщениям
Вы не можете скачивать файлы