Гадкие лебеди (Константин Лопушанский) [2006, социальная драма, фантастика, DVDRip]

Ответить на тему
 
Автор Сообщение

user ®

Стаж: 7 лет 7 месяцев

Сообщений: 20008

Пост Пост: #1 от 03-Авг-2013 18:05

[Цитировать]

Гадкие лебеди / Ugly swans
Страна: Россия, Франция
Жанр: социальная драма, фантастика
Год выпуска: 2006
Продолжительность: 01:48:41
Режиссёр: Константин Лопушанский
В ролях: Григорий Гладий, Леонид Мозговой, Алексей Кортнев, Римма Саркисян, Лаура Пицхелаури, Сергей Барковский, Дима Исполатов, Ольга Самошина, Алексей Ингелевич, Виктор Михайлов, Витя Дзекановский, Володя Григорьев, Вася Петров, Илья Ковалёв, Настя Руденко, Женя Кальченко, Гоша Бибиси, Настя Фалилеева, Никита Сквирский, Саша Ходот, Аня Лазуренко, Борис Бирман, Сергей Русскин, Борис Войцеховский, Роман Макаренко, Александр Дюрис, Дмитрий Мокеев, Владимир Марьянов, Павел Яковлев, Игорь Сергеев, Дмитрий Бродский, Борис Шварцман, Игорь Нафтульев, Манана Гогитидзе, Юрий Орлов, Олег Огий, Ирина Коровина, Светлана Немировская, Борис Гуревич, Андрей Сигле, Жак Мартель, Скотт Тобин, Вася Михайлов, Егор Евстафьев, Маша Мясникова
Описание: В Ташлинске, некоем российском городе-призраке, есть интернат для одаренных детей. Там происходят пугающе странные вещи, растут весьма необычные дети, чьими учителями являются существа "мокрецы" - то ли мутанты, то ли пришельцы. Многие из аналитиков считают их врагами, объявившими войну человеческой цивилизации. А дети их любят, видят в них непререкаемых авторитетов и находятся под их полным контролем и влиянием. В городе происходит, казалось бы, беспричинное изменение климата, напоминающее вселенский потоп, - дождь идет постоянно, не прекращаясь. Естественно, вокруг вьются бесчисленные комиссии, изучающие эту аномалию, спецслужбы и спецагенты. Писатель Виктор Банев, когда-то уехавший из Ташлинска в Америку, вынужден вернуться в Россию в составе комиссии ООН и вести собственное расследование...
Доп. информация: По мотивам одноименной фантастико-философской повести братьев Аркадия и Бориса Стругацких, которая долгое время находилась в СССР под запретом.
Сценарий: Константин Лопушанский, Вячеслав Рыбаков
Оператор: Владислав Гурчин
Художник: Константин Пахотин (при участии Виктора Иванова)
Композитор: Андрей Сигле
Награды: приз "Серебряный нарцисс", специальная премия жюри за лучший европейский полнометражный фильм (Константин Лопушанский) на МФ фантастических фильмов в Невшателе (2007); специальный приз жюри «За попытку преодолеть тревоги и фобии современной интеллигенции и выразить это в художественно-адекватной форме» (Константин Лопушанский) на РКФ «Литература и кино» в Гатчине (2007); гран-при "Золотое кольцо" (Константин Лопушанский) на Фестивале фильмов ужасов в Равенне (2007); «Лучший фильм» (Андрей Сигле) на КФ "XXI век. Новое кино" (2006); специальный приз газеты «Московский комсомолец» «За смелость замысла и воплощение» (Андрей Сигле) на КФ «Московская премьера» (2006); приз имени Микаэла Таривердиева за лучшую музыку (Андрей Сигле) на КФ "Кинотавр" (2006); приз «За лучшую операторскую работу» (Владислав Гурчин) на КФ «Амурская осень» (Благовещенск, 2006)
Ограничения на просмотр: зрителям, достигшим 14 лет

Интересные факты

  • В фильме используются имена и названия не только из повести «Гадкие лебеди», но и из других произведений Стругацких: Ташлинск («Отягощённые злом» и «Дьявол среди людей»), Геннадий Комов («Полдень, XXII век»), Валентин Пильман («Пикник на обочине»)
  • Имена большинства героев "Гадких лебедей" изменились: Ирма стала Ирой, Лола — Людой, Бол Кунац — Борей Куницей, Квадрига — Квадригиным, Павор - Павлом, Зурзмансор - Зиновием, Юл Голем - Айзеком Голембой
  • Виктор Банев в фильме читает стихотворение Бориса Пастернака «Во глубине лесного лога». Первое четверостишье этого стихотворения было использовано братьями Стругацкими в качестве эпиграфа к повести «Улитка на склоне».
  • По подсчетам ассистентов, за два с половиной месяца съемок в общей сложности было истрачено 120 тонн воды. Постоянный ливень обеспечивали специальные установки, из которых героев и декорации без конца поливали водой. Картину снимали в Петербурге, на полузаброшенном заводе "Красный треугольник", и в Кронштадте.
  • Российская кинофестивальная премьера фильма состоялась 11 июня 2006 года в конкурсной программе 17 ОРКФ «Кинотавр».
    Фильм вышел в ограниченный прокат 19 октября 2006 года. На телевидении РФ фильм был показан в ночь на 5 апреля 2008 года в "Закрытом показе" на Первом канале.
Качество видео: DVDRip
Формат видео: AVI
Видео: 704x400 (1.76:1), 25 fps, XviD 1.2.1, 1474 kbps avg, 0.21 bit/pixel
Аудио: 48 kHz, AC3 Dolby Digital, 3/2 (L,C,R,l,r) + LFE ch, 448.00 kbps avg

MediaInfo

Полное имя : Gadkie lebedi.avi
Формат : AVI
Формат/Информация : Audio Video Interleave
Размер файла : 1,47 Гбайт
Продолжительность : 1 ч. 48 м.
Общий поток : 1933 Кбит/сек
Программа кодирования : VirtualDubMod 1.5.10.3 (build 2550/release)
Библиотека кодирования : VirtualDubMod build 2550/release
Видео
Идентификатор : 0
Формат : MPEG-4 Visual
Профиль формата : Advanced Simple@L5
Параметр BVOP формата : 2
Параметр QPel формата : Нет
Параметр GMC формата : Без точки перехода
Параметр матрицы формата : Выборочная
Идентификатор кодека : XVID
Идентификатор кодека/Подсказка : XviD
Продолжительность : 1 ч. 48 м.
Битрейт : 1475 Кбит/сек
Ширина : 704 пикселя
Высота : 400 пикселей
Соотношение сторон : 16:9
Частота кадров : 25,000 кадров/сек
Цветовое пространство : YUV
Субдискретизация насыщенности : 4:2:0
Битовая глубина : 8 бит
Тип развёртки : Прогрессивная
Метод сжатия : С потерями
Бит/(Пиксели*Кадры) : 0.210
Размер потока : 1,12 Гбайт (76%)
Библиотека кодирования : XviD 1.2.1 (UTC 2008-12-04)
Аудио
Идентификатор : 1
Формат : AC-3
Формат/Информация : Audio Coding 3
Расширение режима : CM (complete main)
Параметр Endianness формата : Big
Идентификатор кодека : 2000
Продолжительность : 1 ч. 48 м.
Вид битрейта : Постоянный
Битрейт : 448 Кбит/сек
Каналы : 6 каналов
Расположение каналов : Front: L C R, Side: L R, LFE
Частота : 48,0 КГц
Битовая глубина : 16 бит
Метод сжатия : С потерями
Размер потока : 348 Мбайт (23%)
Выравнивание : Разделение по промежуткам
Продолжительность промежутка : 40 мс. (1,00 видеокадр)
Время предзагрузки промежутка : 500 мс.

Скриншоты

Подтверждение правильности выбранного AR

Скачать

Скачать торрент!

Как скачивать? · Что такое торрент? · Рейтинг и ограничения

Сайт не распространяет и не хранит электронные версии произведений, а лишь предоставляет доступ к создаваемому пользователями каталогу ссылок на торрент-файлы, которые содержат только списки хеш-сумм

[Профиль] [ЛС]
Показать сообщения:    
Ответить на тему

Текущее время: Сегодня 06:23

Часовой пояс: GMT + 4



Вы не можете начинать темы
Вы не можете отвечать на сообщения
Вы не можете редактировать свои сообщения
Вы не можете удалять свои сообщения
Вы не можете голосовать в опросах
Вы не можете прикреплять файлы к сообщениям
Вы не можете скачивать файлы