Осенний лист (Сергей Грознов) [2012, мелодрама, SATRip]

Ответить на тему
 
Автор Сообщение

user ®

Стаж: 7 лет 7 месяцев

Сообщений: 20008

Пост Пост: #1 от 03-Авг-2013 18:05

[Цитировать]

Осенний лист
Жанр: мелодрама
Год выпуска: 2012
Продолжительность: 01:27:42
Режиссёр: Сергей Грознов
В ролях:
Валерия Ланская
Кирилл Гребенщиков
Евгений Миллер
Алексей Панин
Екатерина Молоховская
Ирина Поладько
Михаил Клюшкин
Илья Бондарь
Екатерина Добровская
Константин Кожевников
Описание:
Ольга живет с сыном и мужем Виктором, который постоянно ей изменяет, пьянствует и избивает ее. После очередного скандала Ольга решает с ним развестись. Но когда женщина, набравшись храбрости, сообщает об этом супругу, он избивает Ольгу так, что она попадает в больницу. Вернувшись, Ольга узнает, что Виктор арестован.
Оставшись одна, Ольга постепенно начинает жить полной жизнью. Она знакомится с Андреем и влюбляется в него. Андрей делает Ольге предложение. Но Ольга не может его принять, ведь формально она еще замужем. И все меньше времени остается до того дня, когда Виктор выйдет из тюрьмы.
Доп. информация:

Качество видео: SATRip
Формат видео: AVI
Видео: 704x528 (1.33:1), 25 fps, XviD build 65 ~2169 kbps avg, 0.23 bit/pixel
Аудио: 48 kHz, AC3 Dolby Digital, 2/0 (L,R) ch, ~192 kbps
Семпл

MediaInfo

Общее
Полное имя : D:\Torrent\Осенний лист\Осенний лист_1.46\Осенний лист_1.46.avi
Формат : AVI
Формат/Информация : Audio Video Interleave
Размер файла : 1,45 Гбайт
Продолжительность : 1 ч. 27 м.
Общий поток : 2371 Кбит/сек
Программа кодирования : VirtualDubMod 1.5.10.3 | www.virtualdub-fr.org || (build 2550/release)
Библиотека кодирования : VirtualDubMod build 2550/release
Видео
Идентификатор : 0
Формат : MPEG-4 Visual
Профиль формата : Advanced Simple@L5
Параметр BVOP формата : 1
Параметр QPel формата : Нет
Параметр GMC формата : Без точки перехода
Параметр матрицы формата : Выборочная
Идентификатор кодека : XVID
Идентификатор кодека/Подсказка : XviD
Продолжительность : 1 ч. 27 м.
Битрейт : 2170 Кбит/сек
Ширина : 704 пикселя
Высота : 528 пикселей
Соотношение сторон : 4:3
Частота кадров : 25,000 кадров/сек
Цветовое пространство : YUV
Субдискретизация насыщенности : 4:2:0
Битовая глубина : 8 бит
Тип развёртки : Прогрессивная
Метод сжатия : С потерями
Бит/(Пиксели*Кадры) : 0.233
Размер потока : 1,33 Гбайт (91%)
Библиотека кодирования : XviD 65
Аудио
Идентификатор : 1
Формат : AC-3
Формат/Информация : Audio Coding 3
Расширение режима : CM (complete main)
Параметр Endianness формата : Big
Идентификатор кодека : 2000
Продолжительность : 1 ч. 27 м.
Вид битрейта : Постоянный
Битрейт : 192 Кбит/сек
Каналы : 2 канала
Расположение каналов : Front: L R
Частота : 48,0 КГц
Битовая глубина : 16 бит
Метод сжатия : С потерями
Размер потока : 120 Мбайт (8%)
Выравнивание : Разделение по промежуткам
Продолжительность промежутка : 40 мс. (1,00 видеокадр)
Время предзагрузки промежутка : 500 мс.

Скриншот c названием фильма

Скриншоты

Скачать

Скачать торрент!

Как скачивать? · Что такое торрент? · Рейтинг и ограничения

Сайт не распространяет и не хранит электронные версии произведений, а лишь предоставляет доступ к создаваемому пользователями каталогу ссылок на торрент-файлы, которые содержат только списки хеш-сумм

[Профиль] [ЛС]
Показать сообщения:    
Ответить на тему

Текущее время: Сегодня 16:31

Часовой пояс: GMT + 4



Вы не можете начинать темы
Вы не можете отвечать на сообщения
Вы не можете редактировать свои сообщения
Вы не можете удалять свои сообщения
Вы не можете голосовать в опросах
Вы не можете прикреплять файлы к сообщениям
Вы не можете скачивать файлы