За тобой (Татьяна Ивашкина) [2011, драма, DVDRip]

Ответить на тему
 
Автор Сообщение

user ®

Стаж: 7 лет 7 месяцев

Сообщений: 20008

Пост Пост: #1 от 03-Авг-2013 18:05

[Цитировать]

За тобой«Следуя за тобой, возвращаю себя.»-- Жанр: драма
Год выпуска: 2011
Продолжительность: 01:13:00.040--Режиссер: Татьяна Ивашкина
В ролях: Светлана Ходченкова, Максим Колесников, Алексей Серебряков, Владислав Ветров, Анна Алексахина, Андрей Шибаршин, Мария Курденевич
Описание: Воспитывающая в одиночку младшего брата-инвалида, двадцатилетняя Кира однажды оказывается перед выбором: спасти жизнь чужого человека или уберечь свою. На принятие решения ей отведено лишь мгновение. И за это время девушка успевает совершить долгое путешествие по иллюзорным мирам своих фантазий и воспоминаний. Что ждет ее в конце пути? Освобождение? Надежда? Чья-то смерть?--Доп. информация:

Релиз от: --Качество видео: DVDRip
Формат видео: AVI
Видео: 720x400 (1.80:1), 25 fps, XviD build 50 ~2224 kbps avg, 0.31 bit/pixel
Аудио: 48 kHz, AC3 Dolby Digital, 3/2 (L,C,R,l,r) + LFE ch, ~448.00 kbps avg

MediaInfo

General
Complete name                            : Za.toboj.2011.O.DVDRip.IRONCLUB.avi
Format                                   : AVI
Format/Info                              : Audio Video Interleave
File size                                : 1.37 GiB
Duration                                 : 1h 13mn
Overall bit rate                         : 2 682 Kbps
Movie name                               : Za.toboj.2011.O.DVDRip.IRONCLUB
Director                                 : IRONCLUB
Genre                                    : Drama
Writing application                      : VirtualDubModRus 1.5.10.2 (build 2542/release)
Original source form/Name                : Movie
Video
ID                                       : 0
Format                                   : MPEG-4 Visual
Format profile                           : Advanced Simple@L5
Format settings, BVOP                    : 2
Format settings, QPel                    : No
Format settings, GMC                     : No warppoints
Format settings, Matrix                  : Custom
Codec ID                                 : XVID
Codec ID/Hint                            : XviD
Duration                                 : 1h 13mn
Bit rate                                 : 2 224 Kbps
Width                                    : 720 pixels
Height                                   : 400 pixels
Display aspect ratio                     : 16:9
Frame rate                               : 25.000 fps
Color space                              : YUV
Chroma subsampling                       : 4:2:0
Bit depth                                : 8 bits
Scan type                                : Progressive
Compression mode                         : Lossy
Bits/(Pixel*Frame)                       : 0.309
Stream size                              : 1.13 GiB (83%)
Writing library                          : XviD 1.2.1 (UTC 2008-12-04)
Audio
ID                                       : 1
Format                                   : AC-3
Format/Info                              : Audio Coding 3
Mode extension                           : CM (complete main)
Format settings, Endianness              : Big
Codec ID                                 : 2000
Duration                                 : 1h 13mn
Bit rate mode                            : Constant
Bit rate                                 : 448 Kbps
Channel(s)                               : 6 channels
Channel positions                        : Front: L C R, Side: L R, LFE
Sampling rate                            : 48.0 KHz
Bit depth                                : 16 bits
Compression mode                         : Lossy
Stream size                              : 234 MiB (17%)
Alignment                                : Split accross interleaves
Interleave, duration                     : 40 ms (1.00 video frame)
Interleave, preload duration             : 500 ms

Скриншоты


Скачать

Скачать торрент!

Как скачивать? · Что такое торрент? · Рейтинг и ограничения

Сайт не распространяет и не хранит электронные версии произведений, а лишь предоставляет доступ к создаваемому пользователями каталогу ссылок на торрент-файлы, которые содержат только списки хеш-сумм

[Профиль] [ЛС]
Показать сообщения:    
Ответить на тему

Текущее время: Сегодня 11:52

Часовой пояс: GMT + 4



Вы не можете начинать темы
Вы не можете отвечать на сообщения
Вы не можете редактировать свои сообщения
Вы не можете удалять свои сообщения
Вы не можете голосовать в опросах
Вы не можете прикреплять файлы к сообщениям
Вы не можете скачивать файлы