Весьегонская волчица (Николай Соловцов) [2004, драма, фильм о животных, DVDRip]

Ответить на тему
 
Автор Сообщение

user ®

Стаж: 7 лет 7 месяцев

Сообщений: 20008

Пост Пост: #1 от 03-Авг-2013 18:05

[Цитировать]

Весьегонская волчица
Жанр: драма, фильм о животных
Год выпуска: 2004
Продолжительность: 01:41:03
Режиссёр: Николай Соловцов
В ролях: Олег Фомин, Елена Дробышева, Владимир Гостюхин, Лев Дуров, Лев Борисов, Александр Тютин, Наталья Казначеева, Ирина Савина, Алексей Хардиков, Геннадий Галкин, Маша Вишнякова
Описание: Егор - потомственный охотник на волков. Он живет, как жили его предки: растит дочь, любит лес, отстреливает хищников. Но однажды на его пути появляется вожак стаи - умная, сильная, опытная, а потому крайне опасная волчица. Война человека и зверя началась, когда Егор, чтобы прекратить набеги хищников на курятник, забрал из логова на болоте пять волчат. Мать-волчица стала мстить охотнику за своих детей...
Доп. информация: По мотивам одноименной повести Бориса Воробьева.
Сценарий: Николай Соловцов, Эдуард Володарский
Оператор: Элизбар Караваев
Художник: Анатолий Кочуров
Дрессировщики: Ольга Нечаева, Екатерина Лемасова, Аля Сомкина
Композитор: Евгений Дога (при участии Людмилы Волковой)
Награды: главный приз зрительских симпатий, приз Андрея и Станислава Ростоцких на Фестивале российского кино «Окно в Европу» (2004)
Ограничения на просмотр: для любой зрительской аудитории

Афиша

Интересные факты

  • В фильме снимались четыре взрослых полудиких волка - Пузик, Стеша, Рома, Маня - и шестеро волчат, привезенных из петербургского зоопарка.
  • Съемки проходили под Угличем и в ближнем Подмосковье.
  • В сценах, где волчица дружелюбна по отношению к Егору, снималась Стеша, любившая актёра Олега Фомина. Там же, где нужна была злоба, снимался брат Стеши, Пузик, ненавидивший актёра и начинавший скалиться, едва слышал его шаги.
  • На натурных съемках в Ярославской области рядом с сараем, где были клетки волков, стояла будка собаки, играющей Дымка. Собаку подобрали на улице, причем эту «мужскую» роль должна была исполнять обязательно «дама». В сцене «Гибель Дымка» требовалось присутствие и пса, и его убийц. Волки любят лакомиться собачьим мясом, поэтому Дымок по-настоящему мог стать для них "блюдом корейской кухни". Самцы не потерпели бы рядом кобеля, а вот сука могла бы заставить их забыть о гастрономических вкусах. Волки до съемки этого эпизода постоянно видели собаку за забором, и один из них, Пузик, активно интересовался «девочкой». Собака к тому же оказалась боевая, продемонстрировала, что зубы у нее тоже имеются, так что "жертвой искусства" она не стала. Сыграв мнимую смерть, «Дымок» прямо со съемочной площадки уехала к своим новым хозяевам - местным охотникам.
  • Более подробный рассказ дрессировщицы Екатерины Лемасовой о съемках фильма можно прочитать здесь.
Качество видео: DVDRip
Формат видео: AVI
Видео: 704x400 (1.76:1), 25 fps, XviD 1.2.1, 1845 kbps avg, 0.26 bit/pixel
Аудио: 48 kHz, AC3 Dolby Digital, 2/0 (L,R) ch, 224.00 kbps avg

MediaInfo

Полное имя : Vesyegonskaya volchica.avi
Формат : AVI
Формат/Информация : Audio Video Interleave
Размер файла : 1,47 Гбайт
Продолжительность : 1 ч. 41 м.
Общий поток : 2079 Кбит/сек
Программа кодирования : VirtualDubMod 1.5.10.3 (build 2550/release)
Библиотека кодирования : VirtualDubMod build 2550/release
Видео
Идентификатор : 0
Формат : MPEG-4 Visual
Профиль формата : Advanced Simple@L5
Параметр BVOP формата : 1
Параметр QPel формата : Нет
Параметр GMC формата : Без точки перехода
Параметр матрицы формата : Выборочная
Идентификатор кодека : XVID
Идентификатор кодека/Подсказка : XviD
Продолжительность : 1 ч. 41 м.
Битрейт : 1845 Кбит/сек
Ширина : 704 пикселя
Высота : 400 пикселей
Соотношение сторон : 16:9
Частота кадров : 25,000 кадров/сек
Цветовое пространство : YUV
Субдискретизация насыщенности : 4:2:0
Битовая глубина : 8 бит
Тип развёртки : Прогрессивная
Метод сжатия : С потерями
Бит/(Пиксели*Кадры) : 0.262
Размер потока : 1,30 Гбайт (89%)
Библиотека кодирования : XviD 1.2.1 (UTC 2008-12-04)
Аудио
Идентификатор : 1
Формат : AC-3
Формат/Информация : Audio Coding 3
Расширение режима : CM (complete main)
Параметр Endianness формата : Big
Идентификатор кодека : 2000
Продолжительность : 1 ч. 41 м.
Вид битрейта : Постоянный
Битрейт : 224 Кбит/сек
Каналы : 2 канала
Расположение каналов : Front: L R
Частота : 48,0 КГц
Битовая глубина : 16 бит
Метод сжатия : С потерями
Размер потока : 162 Мбайт (11%)
Выравнивание : Разделение по промежуткам
Продолжительность промежутка : 40 мс. (1,00 видеокадр)
Время предзагрузки промежутка : 500 мс.

Скриншоты

Подтверждение правильности выбранного AR

Скачать

Скачать торрент!

Как скачивать? · Что такое торрент? · Рейтинг и ограничения

Сайт не распространяет и не хранит электронные версии произведений, а лишь предоставляет доступ к создаваемому пользователями каталогу ссылок на торрент-файлы, которые содержат только списки хеш-сумм

[Профиль] [ЛС]
Показать сообщения:    
Ответить на тему

Текущее время: Сегодня 16:07

Часовой пояс: GMT + 4



Вы не можете начинать темы
Вы не можете отвечать на сообщения
Вы не можете редактировать свои сообщения
Вы не можете удалять свои сообщения
Вы не можете голосовать в опросах
Вы не можете прикреплять файлы к сообщениям
Вы не можете скачивать файлы