Черный динамит / Black Dynamite (Скотт Сандерс / Scott Sanders) [2009, США, боевик, комедия, криминал, BDRip 720p] DVO (ELEKTRI4KA) + VO (Наумов) + 3x Sub (Rus, Eng) + Original Eng

Ответить на тему
 
Автор Сообщение

user ®

Стаж: 7 лет 7 месяцев

Сообщений: 20008

Пост Пост: #1 от 03-Авг-2013 14:20

[Цитировать]

Черный динамит / Black Dynamite
Страна: США
Жанр: боевик, комедия, криминал
Год выпуска: 2009
Продолжительность: 01:24:14
Перевод 1: Любительский (двухголосый закадровый) ELEKTRI4KA
Перевод 2: Одноголосый закадровый Наумов
Cубтитры: русские (2 вида), английские
Оригинальная аудиодорожка: английский
-
Режиссер: Скотт Сандерс / Scott Sanders
В ролях: Филлис Эпплгейт, Обба Бабатунде, Уильям Бассетт, Трой Линдси Браун, Фределла Кэллоуэй, Шерил Картер, Джука Сизей, Кевин Чэпмен, Томми Дэвидсон, Лаки Дэвис
-
Описание: В районах черного гетто свирепствует итальянская мафия: сиротский приют садится на героин, на улицах распространяется контрабандная бражка под видом крутого ликера. Секретный агент ЦРУ по прозвищу Черный Динамит берет дело в свои руки, поводом для чего становится убийство его брата.

Тип релиза: BDRip 720p
Контейнер: MKV
Видео: H264 / NTSC 16:9 / 1280x692 (1,85:1) / 9545 kbps / 23,976 fps / 0.449 bit/pixel / High@L4.1
Аудио 1: Russian / AC3 / 48 kHz / 5.1 Ch / 384 kbps / 16 bit / DVO
Аудио 2: Russian / AC3 / 48 kHz / 2 Ch / 224 kbps / 16 bit / VO
Аудио 3: English / DTS / 48 kHz / 5.1 Ch / 1510 kbps / 24 bit / Original
Формат субтитров: softsub (SRT)
Навигация по главам: есть

Доп.инфо

Дорожка №2 сдаунмиксена в 2 Ch ввиду
А кто делал звук в 5.1? Перевод идет из фронтальных колонок, даже из тыловых, но никак не из центральной.
Ошибки при монтаже.

MediaInfo

Общее
Уникальный идентификатор : 176004317321656745664105578214008032467 (0x846932D15CD97C719466FD2748F80CD3)
Полное имя : W:\BDRip 720p\Black Dynamite.2009.BDRip.720p.mkv
Формат : Matroska
Версия формата : Version 4 / Version 2
Размер файла : 6,86 Гбайт
Продолжительность : 1 ч. 24 м.
Общий поток : 11,7 Мбит/сек
Дата кодирования : UTC 2013-08-03 05:44:18
Программа кодирования : mkvmerge v6.3.0 ('You can't stop me!') built on Jun 28 2013 20:09:41
Библиотека кодирования : libebml v1.3.0 + libmatroska v1.4.0
Видео
Идентификатор : 1
Формат : AVC
Формат/Информация : Advanced Video Codec
Профиль формата : High@L4.1
Параметр CABAC формата : Да
Параметр ReFrames формата : 8 кадров
Идентификатор кодека : V_MPEG4/ISO/AVC
Продолжительность : 1 ч. 24 м.
Битрейт : 9545 Кбит/сек
Ширина : 1280 пикселей
Высота : 692 пикселя
Соотношение сторон : 1,85:1
Режим частоты кадров : Постоянный
Частота кадров : 23,976 кадра/сек
Цветовое пространство : YUV
Субдискретизация насыщенности : 4:2:0
Битовая глубина : 8 бит
Тип развёртки : Прогрессивная
Бит/(Пиксели*Кадры) : 0.449
Размер потока : 5,48 Гбайт (80%)
Библиотека кодирования : x264 core 84 r1416 fcf70c2
Настройки программы : cabac=1 / ref=8 / deblock=1:-3:-3 / analyse=0x3:0x113 / me=tesa / subme=10 / psy=1 / psy_rd=1.0:0.0 / mixed_ref=1 / me_range=64 / chroma_me=1 / trellis=2 / 8x8dct=1 / cqm=0 / deadzone=21,11 / fast_pskip=0 / chroma_qp_offset=-2 / threads=6 / sliced_threads=0 / nr=0 / decimate=0 / mbaff=0 / constrained_intra=0 / bframes=6 / b_pyramid=2 / b_adapt=2 / b_bias=0 / direct=3 / wpredb=1 / wpredp=2 / keyint=250 / keyint_min=25 / scenecut=40 / intra_refresh=0 / rc=2pass / mbtree=0 / bitrate=9545 / ratetol=1.0 / qcomp=0.60 / qpmin=10 / qpmax=51 / qpstep=4 / cplxblur=20.0 / qblur=0.5 / ip_ratio=1.40 / pb_ratio=1.30 / aq=1:0.80
Язык : English
Default : Да
Forced : Нет
Аудио #1
Идентификатор : 2
Формат : AC-3
Формат/Информация : Audio Coding 3
Расширение режима : CM (complete main)
Параметр Endianness формата : Big
Идентификатор кодека : A_AC3
Продолжительность : 1 ч. 24 м.
Вид битрейта : Постоянный
Битрейт : 384 Кбит/сек
Каналы : 6 каналов
Расположение каналов : Front: L C R, Side: L R, LFE
Частота : 48,0 КГц
Битовая глубина : 16 бит
Метод сжатия : С потерями
Размер потока : 231 Мбайт (3%)
Заголовок : DVO
Язык : Russian
Default : Да
Forced : Нет
Аудио #2
Идентификатор : 3
Формат : AC-3
Формат/Информация : Audio Coding 3
Расширение режима : CM (complete main)
Параметр Endianness формата : Big
Идентификатор кодека : A_AC3
Продолжительность : 1 ч. 24 м.
Вид битрейта : Постоянный
Битрейт : 224 Кбит/сек
Каналы : 2 канала
Расположение каналов : Front: L R
Частота : 48,0 КГц
Битовая глубина : 16 бит
Метод сжатия : С потерями
Размер потока : 135 Мбайт (2%)
Заголовок : VO
Язык : Russian
Default : Нет
Forced : Нет
Аудио #3
Идентификатор : 4
Формат : DTS
Формат/Информация : Digital Theater Systems
Идентификатор кодека : A_DTS
Продолжительность : 1 ч. 24 м.
Вид битрейта : Постоянный
Битрейт : 1510 Кбит/сек
Каналы : 6 каналов
Расположение каналов : Front: L C R, Side: L R, LFE
Частота : 48,0 КГц
Битовая глубина : 24 бит
Метод сжатия : С потерями
Размер потока : 910 Мбайт (13%)
Заголовок : Original
Язык : English
Default : Нет
Forced : Нет
Текст #1
Идентификатор : 5
Формат : UTF-8
Идентификатор кодека : S_TEXT/UTF8
Идентификатор кодека/Информация : UTF-8 Plain Text
Заголовок : mr_greenwood
Язык : Russian
Default : Нет
Forced : Нет
Текст #2
Идентификатор : 6
Формат : UTF-8
Идентификатор кодека : S_TEXT/UTF8
Идентификатор кодека/Информация : UTF-8 Plain Text
Заголовок : HEDONE
Язык : Russian
Default : Нет
Forced : Нет
Текст #3
Идентификатор : 7
Формат : UTF-8
Идентификатор кодека : S_TEXT/UTF8
Идентификатор кодека/Информация : UTF-8 Plain Text
Заголовок : Original
Язык : English
Default : Нет
Forced : Нет
Меню
00:00:00.000 : en:00:00:00.000
00:04:40.739 : en:00:04:40.739
00:10:00.934 : en:00:10:00.934
00:15:10.785 : en:00:15:10.785
00:19:34.173 : en:00:19:34.173
00:25:28.819 : en:00:25:28.819
00:31:23.298 : en:00:31:23.298
00:35:39.429 : en:00:35:39.429
00:40:23.046 : en:00:40:23.046
00:44:16.571 : en:00:44:16.571
00:48:16.393 : en:00:48:16.393
00:54:03.407 : en:00:54:03.407
01:01:43.283 : en:01:01:43.283
01:06:14.721 : en:01:06:14.721
01:10:13.543 : en:01:10:13.543
01:15:06.919 : en:01:15:06.919

Скриншоты

Скачать

Скачать торрент!

Как скачивать? · Что такое торрент? · Рейтинг и ограничения

Сайт не распространяет и не хранит электронные версии произведений, а лишь предоставляет доступ к создаваемому пользователями каталогу ссылок на торрент-файлы, которые содержат только списки хеш-сумм

[Профиль] [ЛС]
Показать сообщения:    
Ответить на тему

Текущее время: Сегодня 02:22

Часовой пояс: GMT + 4



Вы не можете начинать темы
Вы не можете отвечать на сообщения
Вы не можете редактировать свои сообщения
Вы не можете удалять свои сообщения
Вы не можете голосовать в опросах
Вы не можете прикреплять файлы к сообщениям
Вы не можете скачивать файлы