Тарас Бульба / Запорожская сечь (Владимир Бортко) [2009, драма, экранизация, DVDRip]

Ответить на тему
 
Автор Сообщение

user ®

Стаж: 7 лет 7 месяцев

Сообщений: 20008

Пост Пост: #1 от 02-Авг-2013 16:15

[Цитировать]

Тарас Бульба / Запорожская сечь
Жанр: драма, экранизация
Год выпуска: 2009
Продолжительность: 02:08:17
Режиссёр: Владимир Бортко
В ролях: Богдан Ступка, Игорь Петренко, Владимир Вдовиченков, Магдалена Мельцаж, Любомирас Лауцявичюс, Ада Роговцева, Сергей Дрейден, Михаил Боярский, Юрий Беляев, Лесь Сердюк, Владимир Ильин, Борис Хмельницкий, Александр Дедюшко, Петр Зайченко, Иван Краско, Матлюба Алимова, Остап Ступка, Михаил Журавский, Тадеуш Парадович, Кшиштоф Гоштыла, Олег Пащенко, Даниэль Ольбрыхский, Василий Слюсаревский, Людмила Аржаникова, Фатма Асанова
Описание: По мотивам одноименной повести Николая Васильевича Гоголя.
Середина XVI века. Великое Польское королевство вступило в золотую пору расцвета своего могущества. Огнем и мечом польская шляхта покоряет украинскую землю, повсюду насаждая свои порядки. Земли захватывались вместе с людьми, вольных крестьян прикрепляли к земле. Сюда, в низовье Днепра, стекались все, кто не желал ходить в польских холопах. Очень скоро Запорожье стало центром казацкой вольницы и головной болью великой империи. Вчерашние рабы, разбойники становились здесь хозяевами судьбы всего своего народа.
Качество видео: DVDRip
Формат видео: AVI
Видео: 704x288 (2.40:1), 25 fps, XviD 1.2.0.dev47, 1833 kbps
Аудио: Dolby AC3, 48.0 KHz, 6 ch, 448 kbps

MediaInfo

Complete name : Тарас Бульба.avi
Format : AVI
Format/Info : Audio Video Interleave
Format profile : OpenDML
File size : 2.05 GiB
Duration : 2h 8mn
Overall bit rate : 2 292 Kbps
Movie name : Taras Bulba (2009)
Writing application : VirtualDubMod 1.5.4.1 (build 2178/release)
Video
ID : 0
Format : MPEG-4 Visual
Format profile : Advanced Simple@L5
Format settings, BVOP : Yes
Format settings, QPel : No
Format settings, GMC : No warppoints
Format settings, Matrix : Default (MPEG)
Codec ID : XVID
Codec ID/Hint : XviD
Duration : 2h 8mn
Bit rate : 1 833 Kbps
Width : 704 pixels
Height : 288 pixels
Display aspect ratio : 2.40:1
Frame rate : 25.000 fps
Color space : YUV
Chroma subsampling : 4:2:0
Bit depth : 8 bits
Scan type : Progressive
Compression mode : Lossy
Bits/(Pixel*Frame) : 0.362
Stream size : 1.64 GiB (80%)
Writing library : XviD 1.2.0.dev47 (UTC 2006-11-01)
Audio
ID : 1
Format : AC-3
Format/Info : Audio Coding 3
Mode extension : CM (complete main)
Format settings, Endianness : Big
Codec ID : 2000
Duration : 2h 7mn
Bit rate mode : Constant
Bit rate : 448 Kbps
Channel(s) : 6 channels
Channel positions : Front: L C R, Side: L R, LFE
Sampling rate : 48.0 KHz
Bit depth : 16 bits
Compression mode : Lossy
Delay relative to video : 10ms
Stream size : 410 MiB (19%)
Alignment : Split accross interleaves
Interleave, duration : 40 ms (1.00 video frame)
Interleave, preload duration : 500 ms

Скриншот c названием фильма

Скриншоты

Скачать

Скачать торрент!

Как скачивать? · Что такое торрент? · Рейтинг и ограничения

Сайт не распространяет и не хранит электронные версии произведений, а лишь предоставляет доступ к создаваемому пользователями каталогу ссылок на торрент-файлы, которые содержат только списки хеш-сумм

[Профиль] [ЛС]
Показать сообщения:    
Ответить на тему

Текущее время: Сегодня 07:02

Часовой пояс: GMT + 4



Вы не можете начинать темы
Вы не можете отвечать на сообщения
Вы не можете редактировать свои сообщения
Вы не можете удалять свои сообщения
Вы не можете голосовать в опросах
Вы не можете прикреплять файлы к сообщениям
Вы не можете скачивать файлы