Девять жизней Нестора Махно (Николай Каптан) [2006 г., Историческое кино, Драма, Сериал, Биографии, 3 x DVD9]

Ответить на тему
 
Автор Сообщение

Сека ®

Пол:

Стаж: 3 года 7 месяцев

Сообщений: 41

Откуда: Казахстан.

Пост Пост: #1 от 02-Авг-2013 13:26

[Цитировать]

Год выпуска: 2006
Жанр: Историческое кино, Драма, Сериал, Биографии
Продолжительность: 540 min.
Производство: Кинокомпания «ДомФильм» при участии Киностудии «Еврофильм-сервис»
Страна:
Режиссер: Николай Каптан Павел Деревянко, Ада Роговцева, Кирилл Плетнёв. Даниил Белых, Опег Примагенов, Игорь Гнездилов, Леся Самаева, Анна Слю, Анна Укопова, Наталья Солдатова и другие. В семнадцать лет Нестор Махно был осужден за 20 лет тюрьмы за участие в грабежах и убийствах. В феврале 17-го его освободит и привлечет к себе революция. Тюремный и боевой опыт анархиста Махно сделали его востребованным тем бурным временем. Беспощадная партизанская война за свободу от любой власти и насилия превратили батьку Махно в серьезного и опасного противника для всех вопюющих сторон: немцев, петлюровцев, белых и красных.
Война принесет Махно славу, любовь и друзей, откроет возможности безграничной власти и заставит его сделать окончательный выбор в жизни...
3 xDVD9
Качество: DVD9
Формат: MPEG
Видео кодек: MPEG2
Аудио кодек: MPEG Audio
Видео: PAL 4:3 (720x416) VBR 192 кб\сек
Аудио: Russian (MPEG1, 2 c)

MediaInfo

General
Complete name                    : \Девять жизней Нестора Махно\DVD_1\VIDEO_TS\VTS_01_2.VOB
Format                           : MPEG-PS
File size                        : 977 MiB
Duration                         : 25mn 33s
Overall bit rate                 : 5 344 Kbps
Video
ID                               : 224 (0xE0)
Format                           : MPEG Video
Format version                   : Version 2
Format profile                   : Main@Main
Format settings, Matrix          : Default
Duration                         : 25mn 33s
Bit rate mode                    : Constant
Bit rate                         : 4 908 Kbps
Nominal bit rate                 : 5 000 Kbps
Width                            : 720 pixels
Height                           : 576 pixels
Display aspect ratio             : 4/3
Frame rate                       : 25.000 fps
Standard                         : PAL
Colorimetry                      : 4:2:0
Scan type                        : Interlaced
Scan order                       : Bottom Field First
Bits/(Pixel*Frame)               : 0.473
Stream size                      : 897 MiB (92%)
Audio
ID                               : 192 (0xC0)
Format                           : MPEG Audio
Format version                   : Version 1
Format profile                   : Layer 2
Duration                         : 25mn 32s
Bit rate mode                    : Constant
Bit rate                         : 224 Kbps
Channel(s)                       : 2 channels
Sampling rate                    : 48.0 KHz
Resolution                       : 16 bits
Video delay                      : -224ms
Stream size                      : 40.9 MiB (4%)
Menu
Format                           : DVD-Video


Скачать

Скачать торрент!

Как скачивать? · Что такое торрент? · Рейтинг и ограничения

Сайт не распространяет и не хранит электронные версии произведений, а лишь предоставляет доступ к создаваемому пользователями каталогу ссылок на торрент-файлы, которые содержат только списки хеш-сумм


_________________
[Профиль] [ЛС]
Показать сообщения:    
Ответить на тему

Текущее время: Сегодня 20:31

Часовой пояс: GMT + 4



Вы не можете начинать темы
Вы не можете отвечать на сообщения
Вы не можете редактировать свои сообщения
Вы не можете удалять свои сообщения
Вы не можете голосовать в опросах
Вы не можете прикреплять файлы к сообщениям
Вы не можете скачивать файлы