Быть или не быть / To Be or Not to Be (Алан Джонсон / Alan Johnson) [1983, США, Комедия, Военный, BDRemux 1080p] AVO (Алексей Михалев) + AVO (Владимир Королёв) + Sub Eng + Original Eng

Ответить на тему
 
Автор Сообщение

user ®

Стаж: 7 лет 7 месяцев

Сообщений: 20008

Пост Пост: #1 от 02-Авг-2013 10:20

[Цитировать]

-Быть или не быть / To Be or Not to Be-Страна: США
Студия: Twentieth Century Fox Film Corporation, Brooksfilms
Жанр: Комедия, Военный
Год выпуска: 1983
Продолжительность: 01:47:16-Перевод: Авторский (одноголосый закадровый) Алексей Михалев
Перевод: Авторский (одноголосый закадровый) Владимир Королёв
Cубтитры: английские
Оригинальная аудиодорожка: английский-Режиссер: Алан Джонсон / Alan Johnson
В ролях: Мел Брукс, Энн Бэнкрофт, Тим Мэтисон, Чарльз Дёрнинг, Кристофер Ллойд, Хосе Феррер, Ронни Грэм, Эстелл Райнер, Зейл Кесслер, Джек Райли-Описание: Актеры польского театра помогают своему собрату, летчику польской эскадрильи, сброшенному с парашютом в оккупированную немцами Варшаву, убить предателя. В центре сюжета звезды театра — Фредерик и Анна Бронски, в которую летчик был влюблен еще до войны. Бруксу приходится выдавать себя за убитого, прибегнув к помощи своего сомнительного по фильму таланта, и водить за нос немцев, снятых в карикатурной, импонирующей манере.-Сэмпл: http://yadi.sk/d/lRJ5DYD77TZz5-Тип релиза: BDRemux 1080p
Контейнер: MKV
Видео: MPEG-4 AVC Video 27953 kbps 1080p / 23.976 fps / 16:9 / High Profile 4.1
Аудио: Dolby Digital Audio Russian 2.0 / 48 kHz / 192 kbps | Алексей Михалев
Аудио: Dolby Digital Audio Russian 2.0 / 48 kHz / 192 kbps | Владимир Королёв
Аудио: DTS-HD Master Audio English 3648 kbps 5.1 / 48 kHz / 3648 kbps / 24-bit (DTS Core: 5.1 / 48 kHz / 1509 kbps / 24-bit)
Формат субтитров: softsub (SRT)

MI

General
Complete name                    : W:\Фильмы\Мел Брукс\Быть или не быть (1983. To Be or Not to Be).mkv
Format                           : Matroska
File size                        : 24.0 GiB
Duration                         : 1h 47mn
Overall bit rate                 : 32.0 Mbps
Movie name                       : Release for RuTracker
Encoded date                     : UTC 2013-07-31 20:41:33
Writing application              : mkvmerge v4.9.1 ('Ich will') сборка от Jul 11 2011 23:53:15
Writing library                  : libebml v1.2.1 + libmatroska v1.1.1
Video
ID                               : 1
Format                           : AVC
Format/Info                      : Advanced Video Codec
Format profile                   : High@L4.1
Format settings, CABAC           : Yes
Format settings, ReFrames        : 2 frames
Muxing mode                      : Container profile=Unknown@4.1
Codec ID                         : V_MPEG4/ISO/AVC
Duration                         : 1h 47mn
Bit rate mode                    : Variable
Width                            : 1 920 pixels
Height                           : 1 080 pixels
Display aspect ratio             : 16:9
Frame rate                       : 23.976 fps
Color space                      : YUV
Chroma subsampling               : 4:2:0
Bit depth                        : 8 bits
Scan type                        : Progressive
Language                         : English
Audio #1
ID                               : 2
Format                           : AC-3
Format/Info                      : Audio Coding 3
Mode extension                   : CM (complete main)
Codec ID                         : A_AC3
Duration                         : 1h 47mn
Bit rate mode                    : Constant
Bit rate                         : 192 Kbps
Channel(s)                       : 2 channels
Channel positions                : Front: L R
Sampling rate                    : 48.0 KHz
Bit depth                        : 16 bits
Stream size                      : 147 MiB (1%)
Title                            : Алексей Михалев
Language                         : Russian
Audio #2
ID                               : 3
Format                           : AC-3
Format/Info                      : Audio Coding 3
Mode extension                   : CM (complete main)
Codec ID                         : A_AC3
Duration                         : 1h 47mn
Bit rate mode                    : Constant
Bit rate                         : 192 Kbps
Channel(s)                       : 2 channels
Channel positions                : Front: L R
Sampling rate                    : 48.0 KHz
Bit depth                        : 16 bits
Stream size                      : 147 MiB (1%)
Title                            : Владимир Королев
Language                         : Russian
Audio #3
ID                               : 4
Format                           : DTS
Format/Info                      : Digital Theater Systems
Format profile                   : MA
Codec ID                         : A_DTS
Duration                         : 1h 47mn
Bit rate mode                    : Variable
Channel(s)                       : 6 channels
Channel positions                : Front: L C R, Side: L R, LFE
Sampling rate                    : 48.0 KHz
Bit depth                        : 24 bits
Language                         : English
Text #1
ID                               : 5
Format                           : UTF-8
Codec ID                         : S_TEXT/UTF8
Codec ID/Info                    : UTF-8 Plain Text
Title                            : SDH
Language                         : English
Text #2
ID                               : 6
Format                           : PGS
Codec ID                         : S_HDMV/PGS
Codec ID/Info                    : The same subtitle format used on BDs/HD-DVDs
Title                            : SDH
Language                         : English
Menu
00:00:00.000                     : en:00:00:00.000
00:02:08.337                     : en:00:02:08.337
00:07:51.012                     : en:00:07:51.012
00:08:27.799                     : en:00:08:27.799
00:13:05.243                     : en:00:13:05.243
00:22:19.505                     : en:00:22:19.505
00:26:34.384                     : en:00:26:34.384
00:29:34.481                     : en:00:29:34.481
00:38:54.749                     : en:00:38:54.749
00:44:09.772                     : en:00:44:09.772
00:47:04.363                     : en:00:47:04.363
00:59:22.976                     : en:00:59:22.976
01:08:14.716                     : en:01:08:14.716
01:12:44.944                     : en:01:12:44.944
01:17:31.856                     : en:01:17:31.856
01:26:07.454                     : en:01:26:07.454
01:33:49.374                     : en:01:33:49.374
01:35:52.038                     : en:01:35:52.038
01:40:23.684                     : en:01:40:23.684
01:43:12.853                     : en:01:43:12.853

Скриншоты


Зеркало


Скачать

Скачать торрент!

Как скачивать? · Что такое торрент? · Рейтинг и ограничения

Сайт не распространяет и не хранит электронные версии произведений, а лишь предоставляет доступ к создаваемому пользователями каталогу ссылок на торрент-файлы, которые содержат только списки хеш-сумм

[Профиль] [ЛС]
Показать сообщения:    
Ответить на тему

Текущее время: Сегодня 10:08

Часовой пояс: GMT + 4



Вы не можете начинать темы
Вы не можете отвечать на сообщения
Вы не можете редактировать свои сообщения
Вы не можете удалять свои сообщения
Вы не можете голосовать в опросах
Вы не можете прикреплять файлы к сообщениям
Вы не можете скачивать файлы