Четвёртый вид / The Fourth Kind (Олатунде Осунсанми / Olatunde Osunsanmi) [2009, США, Великобритания, ужасы, фантастика, триллер, детектив, BDRip 720p] Dub + Sub Eng + Original Eng

Ответить на тему
 
Автор Сообщение

user ®

Стаж: 7 лет 7 месяцев

Сообщений: 20008

Пост Пост: #1 от 02-Авг-2013 01:25

[Цитировать]

Четвёртый вид / The Fourth Kind «There are four kinds of alien encounters. The fourth kind is abduction.»
Страна: США, Великобритания
Жанр: ужасы, фантастика, триллер, детектив
Год выпуска: 2009
Продолжительность: 01:38:00
Перевод: Профессиональный (дублированный)
Cубтитры: английские
Оригинальная аудиодорожка: английский-Режиссер: Олатунде Осунсанми / Olatunde Osunsanmi
В ролях: Милла Йовович, Элиас Котеас, Уилл Пэттон, Энзо Силенти, Кори Джонсон, Хаким Кае-Казим, Алиша Ситон, Дафна Александр, Мия МакКенна-Брюс, Тайн Рафаэли-Описание: На территории Аляски происходят необъяснимые исчезновения людей. Несмотря на все усилия ФБР, расследования зашли в тупик, и тайна, по-прежнему, не раскрыта. Психиатр Эбигейл Тайлер начинает записывать на видео беседы со своими пациентами и обнаруживает нечто очень страшное и пугающе…-Доп. информация:
премьера (мир) 24 октября 2009
премьера (РФ) 11 марта 2010

-Тип релиза: BDRip 720p
Контейнер: MKV
Видео:H.264, 1280x544, 2,35:1, 23,9 fps, 4 876 kbps, 0.292 bit/pixel
Аудио: АС3, 448 kb/s (6 ch), 48,0 КHz Russian
Аудио 2: DTS, 1509 kb/s (6 ch), 48,0 КHz English
Формат субтитров: softsub (SRT)

MediaInfo

Общее
Уникальный идентификатор : 240297856894950970201327192570456422044 (0xB4C7AF0E9AE9540C89E5E21A64F7B69C)
Полное имя : E:\Chetvertij.vid.2009.P.BDRip720p.mkv
Формат : Matroska
Версия формата : Version 2
Размер файла : 4,67 Гбайт
Продолжительность : 1 ч. 38 м.
Общий поток : 6828 Кбит/сек
Дата кодирования : UTC 2010-04-14 19:09:16
Программа кодирования : mkvmerge v2.9.5 ('Tu es le seul') built on Jun 7 2009 11:07:07
Библиотека кодирования : libebml v0.7.7 + libmatroska v0.8.1
Видео
Идентификатор : 1
Формат : AVC
Формат/Информация : Advanced Video Codec
Профиль формата : High@L4.1
Параметр CABAC формата : Да
Параметр ReFrames формата : 5 кадров
Идентификатор кодека : V_MPEG4/ISO/AVC
Продолжительность : 1 ч. 38 м.
Битрейт : 4876 Кбит/сек
Ширина : 1280 пикселей
Высота : 544 пикселя
Соотношение сторон : 2,35:1
Режим частоты кадров : Постоянный
Частота кадров : 23,976 кадра/сек
Цветовое пространство : YUV
Субдискретизация насыщенности : 4:2:0
Битовая глубина : 8 бит
Тип развёртки : Прогрессивная
Бит/(Пиксели*Кадры) : 0.292
Размер потока : 3,24 Гбайт (69%)
Библиотека кодирования : x264 core 88 r1471 1144615
Настройки программы : cabac=1 / ref=5 / deblock=1:0:0 / analyse=0x3:0x133 / me=umh / subme=7 / psy=1 / psy_rd=1.00:0.00 / mixed_ref=1 / me_range=16 / chroma_me=1 / trellis=1 / 8x8dct=1 / cqm=0 / deadzone=21,11 / fast_pskip=1 / chroma_qp_offset=-2 / threads=6 / sliced_threads=0 / nr=0 / decimate=1 / mbaff=0 / constrained_intra=0 / bframes=3 / b_pyramid=2 / b_adapt=2 / b_bias=0 / direct=3 / wpredb=1 / wpredp=2 / keyint=250 / keyint_min=25 / scenecut=40 / intra_refresh=0 / rc=2pass / mbtree=0 / bitrate=4876 / ratetol=1.0 / qcomp=0.60 / qpmin=10 / qpmax=51 / qpstep=4 / cplxblur=20.0 / qblur=0.5 / ip_ratio=1.40 / pb_ratio=1.30 / aq=1:1.00
Язык : English
Default : Да
Forced : Нет
Аудио #1
Идентификатор : 2
Формат : AC-3
Формат/Информация : Audio Coding 3
Расширение режима : CM (complete main)
Параметр Endianness формата : Big
Идентификатор кодека : A_AC3
Продолжительность : 1 ч. 38 м.
Вид битрейта : Постоянный
Битрейт : 448 Кбит/сек
Каналы : 6 каналов
Расположение каналов : Front: L C R, Side: L R, LFE
Частота : 48,0 КГц
Битовая глубина : 16 бит
Метод сжатия : С потерями
Задержка видео : 18 мс.
Размер потока : 314 Мбайт (7%)
Default : Да
Forced : Нет
Аудио #2
Идентификатор : 3
Формат : DTS
Формат/Информация : Digital Theater Systems
Режим : 16
Параметр Endianness формата : Big
Идентификатор кодека : A_DTS
Продолжительность : 1 ч. 38 м.
Вид битрейта : Постоянный
Битрейт : 1509 Кбит/сек
Каналы : 6 каналов
Расположение каналов : Front: L C R, Side: L R, LFE
Частота : 48,0 КГц
Битовая глубина : 24 бит
Метод сжатия : С потерями
Размер потока : 1,03 Гбайт (22%)
Заголовок : DTS 1509 Kbps
Язык : English
Default : Нет
Forced : Нет
Текст
Идентификатор : 4
Формат : UTF-8
Идентификатор кодека : S_TEXT/UTF8
Идентификатор кодека/Информация : UTF-8 Plain Text
Язык : English
Default : Да
Forced : Нет

Скриншоты

Скачать

Скачать торрент!

Как скачивать? · Что такое торрент? · Рейтинг и ограничения

Сайт не распространяет и не хранит электронные версии произведений, а лишь предоставляет доступ к создаваемому пользователями каталогу ссылок на торрент-файлы, которые содержат только списки хеш-сумм

[Профиль] [ЛС]
Показать сообщения:    
Ответить на тему

Текущее время: Сегодня 09:51

Часовой пояс: GMT + 4



Вы не можете начинать темы
Вы не можете отвечать на сообщения
Вы не можете редактировать свои сообщения
Вы не можете удалять свои сообщения
Вы не можете голосовать в опросах
Вы не можете прикреплять файлы к сообщениям
Вы не можете скачивать файлы