Транс / Trance (Дэнни Бойл / Danny Boyle) [2013, Великобритания, Франция, триллер, драма, криминал, детектив, BDRip 1080p] Dub (iTunes) + Ukr (Dub (iTunes)) + Sub Rus (iTunes) + Sub Ukr (iTunes) + Original Eng

Ответить на тему
 
Автор Сообщение

user ®

Стаж: 7 лет 7 месяцев

Сообщений: 20008

Пост Пост: #1 от 02-Авг-2013 01:25

[Цитировать]

Транс
Trance

«В подсознании. Вне закона»
Страна: Великобритания, Франция
Жанр: Триллер, драма, криминал, детектив
Год выпуска: 2013
Продолжительность: 01:41:19
Перевод: Профессиональный (дублированный) iTunes
Оригинальная аудиодорожка: английский
Cубтитры: Russian (iTunes), Ukrainian (iTunes), English (iTunes), English, English (SDH), English (SDH-COLORED)
Режиссер: Дэнни Бойл / Danny Boyle
В ролях: Джеймс МакЭвой, Венсан Кассель, Розарио Доусон, Дэнни Сапани, Мэттью Кросс, Вахаб Ахмед Шейх, Марк Полтимор, Таппенс Мидлтон, Саймон Кунц, Майкл Шэйффер
Описание: Аукционер Саймон не в силах противостоять искушению - вступает в сговор с бандой грабителей и организует похищение уникального лота стоимостью в миллионы долларов. Однако налет оканчивается не совсем так, как он предполагал вначале. Аукционера оглушают ударом тупого предмета по голове, в результате которого он теряет какие бы то ни было воспоминания о том, что произошло.
Разумеется, он также забывает, куда спрятал ценную картину. Пытками добиться ответа от ничего не понимающего Саймона не удается. Тогда главарь банды решает нанять психотерапевта, чтобы она смогла выудить ценную информацию из поврежденного мозга заложника. По мере того, как девушка пробивается сквозь нейронную защиту, ставки растут как на дрожжах. Границы между страстью и жестокостью, реальностью и вымыслом тускнеют и вовсе готовы испариться. В конечном итоге становится не ясно - кто же у кого в заложниках?
Сэмпл: http://yadi.sk/d/v_Fnh3OX7STzG
Релиз:
Качество: BDRip | Контейнер: MKV | Рип: DON!
Видео: 1920x800 (OAR) at 23.976 fps, x264@L4.1, CRF 17.2, ~12.4 Mbps avg
Аудио: Russian: 48 kHz, AC3, 3/2 (L,C,R,l,r) + LFE ch, ~384.00 kbps avg |Дубляж, iTunes Russia|
Аудио: Ukrainian: 48 kHz, AAC, 2/0 (L,R) ch, ~160.00 kbps avg |Дубляж, iTunes Russia|
Аудио: English: 48 kHz, DTS, 3/2 (L,C,R,l,r) + LFE ch, ~1536 kbps avg
Формат субтитров: softsub (SRT)-

MediaInfo

Код:
Общее
Уникальный идентификатор : 252095468088346930319469306025241614388 (0xBDA7D23288590DF099519CD69E561834)
Полное имя : Q:\Фильмы HD\Trance.2013.1080p.BluRay.Rus.Ukr.Eng.HDCLUB.mkv
Формат : Matroska
Версия формата : Version 2
Размер файла : 10,3 Гбайт
Продолжительность : 1 ч. 41 м.
Общий поток : 14,5 Мбит/сек
Название фильма : Trance (2013) - Release for HDCLUB
Дата кодирования : UTC 2013-07-31 19:08:43
Программа кодирования : mkvmerge v3.4.0 ('Rapunzel') built on May 15 2010 09:38:20
Библиотека кодирования : libebml v0.8.0 + libmatroska v0.9.0
Видео
Идентификатор : 1
Формат : AVC
Формат/Информация : Advanced Video Codec
Профиль формата : High@L4.1
Параметр CABAC формата : Да
Параметр ReFrames формата : 5 кадров
Идентификатор кодека : V_MPEG4/ISO/AVC
Продолжительность : 1 ч. 41 м.
Битрейт : 12,1 Мбит/сек
Ширина : 1920 пикселей
Высота : 800 пикселей
Соотношение сторон : 2,40:1
Частота кадров : 23,976 кадра/сек
Цветовое пространство : YUV
Субдискретизация насыщенности : 4:2:0
Битовая глубина : 8 бит
Тип развёртки : Прогрессивная
Бит/(Пиксели*Кадры) : 0.330
Размер потока : 8,59 Гбайт (84%)
Заголовок : Trance (2013) - Release for HDCLUB
Библиотека кодирования : x264 core 135 r2345kMod f0c1c53
Настройки программы : cabac=1 / ref=5 / deblock=1:-3:-3 / analyse=0x3:0x133 / me=umh / subme=11 / psy=1 / fade_compensate=0.00 / psy_rd=0.90:0.00 / mixed_ref=1 / me_range=24 / chroma_me=1 / trellis=2 / 8x8dct=1 / cqm=0 / deadzone=21,11 / fast_pskip=0 / chroma_qp_offset=-2 / threads=3 / lookahead_threads=1 / sliced_threads=0 / nr=0 / decimate=0 / interlaced=0 / bluray_compat=0 / constrained_intra=0 / bframes=8 / b_pyramid=2 / b_adapt=2 / b_bias=0 / direct=3 / weightb=1 / open_gop=0 / weightp=2 / keyint=250 / keyint_min=23 / scenecut=40 / intra_refresh=0 / rc_lookahead=60 / rc=crf / mbtree=0 / crf=17.2000 / qcomp=0.75 / qpmin=0 / qpmax=69 / qpstep=4 / vbv_maxrate=50000 / vbv_bufsize=62500 / crf_max=0.0 / nal_hrd=none / ip_ratio=1.30 / pb_ratio=1.20 / aq=3:0.60
Язык : English
Default : Нет
Forced : Нет
Аудио #1
Идентификатор : 2
Формат : AC-3
Формат/Информация : Audio Coding 3
Расширение режима : CM (complete main)
Идентификатор кодека : A_AC3
Продолжительность : 1 ч. 41 м.
Вид битрейта : Постоянный
Битрейт : 384 Кбит/сек
Каналы : 6 каналов
Расположение каналов : Front: L C R, Side: L R, LFE
Частота : 48,0 КГц
Битовая глубина : 16 бит
Метод сжатия : С потерями
Размер потока : 278 Мбайт (3%)
Заголовок : AC3 5.1 @ 384 kbps, DUB - iTunes
Язык : Russian
Default : Да
Forced : Нет
Аудио #2
Идентификатор : 3
Формат : AC-3
Формат/Информация : Audio Coding 3
Расширение режима : CM (complete main)
Идентификатор кодека : A_AC3
Продолжительность : 1 ч. 41 м.
Вид битрейта : Постоянный
Битрейт : 192 Кбит/сек
Каналы : 2 канала
Расположение каналов : Front: L R
Частота : 48,0 КГц
Битовая глубина : 16 бит
Метод сжатия : С потерями
Размер потока : 139 Мбайт (1%)
Заголовок : AC3 2.0 @ 192 kbps, DUB - iTunes
Язык : Ukrainian
Default : Нет
Forced : Нет
Аудио #3
Идентификатор : 4
Формат : DTS
Формат/Информация : Digital Theater Systems
Профиль формата : ES
Идентификатор кодека : A_DTS
Продолжительность : 1 ч. 41 м.
Вид битрейта : Постоянный
Битрейт : 1510 Кбит/сек
Каналы : 6 каналов
Расположение каналов : Front: L C R, Side: L R, LFE
Частота : 48,0 КГц
Битовая глубина : 24 бит
Метод сжатия : С потерями
Задержка видео : 11 мс.
Размер потока : 1,07 Гбайт (10%)
Заголовок : DTS-ES 5.1@ 1536 kbps
Язык : English
Default : Нет
Forced : Нет
Текст #1
Идентификатор : 5
Формат : UTF-8
Идентификатор кодека : S_TEXT/UTF8
Идентификатор кодека/Информация : UTF-8 Plain Text
Язык : Russian
Default : Нет
Forced : Нет
Текст #2
Идентификатор : 6
Формат : UTF-8
Идентификатор кодека : S_TEXT/UTF8
Идентификатор кодека/Информация : UTF-8 Plain Text
Язык : Ukrainian
Default : Нет
Forced : Нет
Текст #3
Идентификатор : 7
Формат : UTF-8
Идентификатор кодека : S_TEXT/UTF8
Идентификатор кодека/Информация : UTF-8 Plain Text
Заголовок : iTunes
Язык : English
Default : Нет
Forced : Нет
Текст #4
Идентификатор : 8
Формат : UTF-8
Идентификатор кодека : S_TEXT/UTF8
Идентификатор кодека/Информация : UTF-8 Plain Text
Заголовок : Blu-ray
Язык : English
Default : Нет
Forced : Нет
Текст #5
Идентификатор : 9
Формат : UTF-8
Идентификатор кодека : S_TEXT/UTF8
Идентификатор кодека/Информация : UTF-8 Plain Text
Заголовок : Blu-ray_SDH
Язык : English
Default : Нет
Forced : Нет
Текст #6
Идентификатор : 10
Формат : UTF-8
Идентификатор кодека : S_TEXT/UTF8
Идентификатор кодека/Информация : UTF-8 Plain Text
Заголовок : Blu-ray_SDH-COLORED
Язык : English
Default : Нет
Forced : Нет
Меню
00:00:00.000 : en:Chapter 1
00:04:05.871 : en:Chapter 2
00:08:18.832 : en:Chapter 3
00:10:09.859 : en:Chapter 4
00:13:06.786 : en:Chapter 5
00:15:42.650 : en:Chapter 6
00:17:33.678 : en:Chapter 7
00:21:57.274 : en:Chapter 8
00:23:46.634 : en:Chapter 9
00:25:54.720 : en:Chapter 10
00:28:11.398 : en:Chapter 11
00:31:08.533 : en:Chapter 12
00:33:40.644 : en:Chapter 13
00:36:31.272 : en:Chapter 14
00:39:10.723 : en:Chapter 15
00:41:49.340 : en:Chapter 16
00:45:58.881 : en:Chapter 17
00:51:51.483 : en:Chapter 18
00:59:00.287 : en:Chapter 19
01:02:10.894 : en:Chapter 20
01:08:08.584 : en:Chapter 21
01:12:06.822 : en:Chapter 22
01:14:36.138 : en:Chapter 23
01:16:13.152 : en:Chapter 24
01:25:36.548 : en:Chapter 25
01:28:16.291 : en:Chapter 26
01:31:34.781 : en:Chapter 27
01:35:32.769 : en:Chapter 28

-

Скриншоты

-
Скачать

Скачать торрент!

Как скачивать? · Что такое торрент? · Рейтинг и ограничения

Сайт не распространяет и не хранит электронные версии произведений, а лишь предоставляет доступ к создаваемому пользователями каталогу ссылок на торрент-файлы, которые содержат только списки хеш-сумм

[Профиль] [ЛС]
Показать сообщения:    
Ответить на тему

Текущее время: Сегодня 13:49

Часовой пояс: GMT + 4



Вы не можете начинать темы
Вы не можете отвечать на сообщения
Вы не можете редактировать свои сообщения
Вы не можете удалять свои сообщения
Вы не можете голосовать в опросах
Вы не можете прикреплять файлы к сообщениям
Вы не можете скачивать файлы