Братья Ньютон / The Newton Boys (Ричард Линклейтер / Richard Linklater) [1998, США, боевик, драма, криминал, вестерн, история, BDRip 720p] MVO (Премьер) + DVO (R5) + Original Eng + Sub (Rus, Eng)

Ответить на тему
 
Автор Сообщение

user ®

Стаж: 7 лет 7 месяцев

Сообщений: 20008

Пост Пост: #1 от 02-Авг-2013 01:25

[Цитировать]

Братья Ньютон / The Newton Boys«History is about to catch up with America's most successful bank robbers.»- Страна: США
Жанр: боевик, драма, криминал, вестерн, история
Год выпуска: 1998
Продолжительность: 02:02:30-Перевод: Профессиональный (многоголосый закадровый) Премьер
+ Профессиональный (двухголосый закадровый) R5
Оригинальная аудиодорожка: Английский
Cубтитры: русские, английские-Режиссер: Ричард Линклейтер / Richard Linklater
В ролях: Мэттью МакКонахи, Скит Ульрих, Этан Хоук, Гэйл Кронау, Винсент Д`Онофрио, Джена Карам, Джулианна Маргулис, Кэйси МакОлиффи, Дуайт Йоакам, Чарльз Ганнинг- -Описание: Однажды четырем молодым братьям-южанам надоело влачить нищенское существование и зарабатывать скудные крохи тяжелым трудом. Большие деньги были совсем рядом, братья уже чувствовали их запах. Для того, чтобы заполучить заветные зеленые купюры, нужно было просто немного наглости и куража. А потом уже весь мир будет у тебя в кармане…
За пять лет семейная банда Ньютонов с успехом опустошила восемьдесят банков в США и Канаде. Для триумфа им не доставало лишь ограбления, которое смогло бы занять место в истории криминалистики. Именно его братья и задумали совершить…-Качество видео: BDRip 720p | исх. The.Newton.Boys.1998.1080p.BD-Remux.2хRus.Eng.HDCLUB | Сэмпл
Формат видео: MKV-Видео: 1280x546 at 23,976 fps, x264@L4.1, ~ 9141 kbps avg
Аудио 1: 48 kHz, AC-3, 6 channels, ~448 kbps | Профессиональный (двухголосый закадровый) R5
Аудио 2: 48 kHz, AC-3, 2 channels, ~192 kbps | Профессиональный (многоголосый закадровый) Премьер
Аудио 3: 48 kHz, AC-3, 6 channels, ~ kbps | Оригинал [English]-Формат субтитров: softsub (SRT)
Главы: есть-

MediaInfo

Код:
General
Unique ID : 224360391034579627803410449982863862200 (0xA8CA3D52AD2C6523B799019DB63669B8)
Complete name : D:\Фильмы\The.Newton.Boys.1998.720p.Bluray.2xRus.Eng.HDCLUB.mkv
Format : Matroska
Format version : Version 2
File size : 9.10 GiB
Duration : 2h 2mn
Overall bit rate : 10.6 Mbps
Encoded date : UTC 2013-07-27 05:10:46
Writing application : mkvmerge v5.8.0 ('No Sleep / Pillow') built on Sep 2 2012 15:37:04
Writing library : libebml v1.2.3 + libmatroska v1.3.0
Video
ID : 1
Format : AVC
Format/Info : Advanced Video Codec
Format profile : High@L4.1
Format settings, CABAC : Yes
Format settings, ReFrames : 12 frames
Codec ID : V_MPEG4/ISO/AVC
Duration : 2h 2mn
Bit rate : 9 141 Kbps
Width : 1 280 pixels
Height : 546 pixels
Display aspect ratio : 2.35:1
Frame rate mode : Constant
Frame rate : 23.976 fps
Color space : YUV
Chroma subsampling : 4:2:0
Bit depth : 8 bits
Scan type : Progressive
Bits/(Pixel*Frame) : 0.546
Stream size : 7.82 GiB (86%)
Writing library : x264 core 135 r2345kMod f0c1c53
Encoding settings : cabac=1 / ref=12 / deblock=1:-2:-2 / analyse=0x3:0x113 / me=umh / subme=11 / psy=1 / fade_compensate=0.00 / psy_rd=1.20:0.05 / mixed_ref=1 / me_range=48 / chroma_me=1 / trellis=2 / 8x8dct=1 / cqm=0 / deadzone=21,11 / fast_pskip=1 / chroma_qp_offset=-3 / threads=6 / lookahead_threads=1 / sliced_threads=0 / nr=0 / decimate=1 / interlaced=0 / bluray_compat=0 / constrained_intra=0 / bframes=13 / b_pyramid=2 / b_adapt=2 / b_bias=0 / direct=3 / weightb=1 / open_gop=0 / weightp=2 / keyint=250 / keyint_min=23 / scenecut=40 / intra_refresh=0 / rc_lookahead=40 / rc=crf / mbtree=0 / crf=17.5000 / qcomp=0.75 / qpmin=0 / qpmax=69 / qpstep=4 / vbv_maxrate=62500 / vbv_bufsize=78125 / crf_max=0.0 / nal_hrd=none / ip_ratio=1.20 / pb_ratio=1.20 / aq=1:0.80
Language : English
Default : Yes
Forced : No
Color primaries : BT.709
Transfer characteristics : BT.709
Matrix coefficients : BT.709
Audio #1
ID : 2
Format : AC-3
Format/Info : Audio Coding 3
Mode extension : CM (complete main)
Format settings, Endianness : Big
Codec ID : A_AC3
Duration : 2h 2mn
Bit rate mode : Constant
Bit rate : 448 Kbps
Channel(s) : 6 channels
Channel positions : Front: L C R, Side: L R, LFE
Sampling rate : 48.0 KHz
Bit depth : 16 bits
Compression mode : Lossy
Stream size : 393 MiB (4%)
Title : Двухголосый закадровый, R5
Language : Russian
Default : Yes
Forced : No
Audio #2
ID : 3
Format : AC-3
Format/Info : Audio Coding 3
Mode extension : CM (complete main)
Format settings, Endianness : Big
Codec ID : A_AC3
Duration : 2h 2mn
Bit rate mode : Constant
Bit rate : 192 Kbps
Channel(s) : 2 channels
Channel positions : Front: L R
Sampling rate : 48.0 KHz
Bit depth : 16 bits
Compression mode : Lossy
Stream size : 168 MiB (2%)
Title : Многоголосый закадровый, Премьер
Language : Russian
Default : No
Forced : No
Audio #3
ID : 4
Format : AC-3
Format/Info : Audio Coding 3
Mode extension : CM (complete main)
Format settings, Endianness : Big
Codec ID : A_AC3
Duration : 2h 2mn
Bit rate mode : Constant
Bit rate : 640 Kbps
Channel(s) : 6 channels
Channel positions : Front: L C R, Side: L R, LFE
Sampling rate : 48.0 KHz
Bit depth : 16 bits
Compression mode : Lossy
Stream size : 561 MiB (6%)
Language : English
Default : No
Forced : No
Text #1
ID : 5
Format : UTF-8
Codec ID : S_TEXT/UTF8
Codec ID/Info : UTF-8 Plain Text
Language : Russian
Default : No
Forced : No
Text #2
ID : 6
Format : UTF-8
Codec ID : S_TEXT/UTF8
Codec ID/Info : UTF-8 Plain Text
Language : English
Default : No
Forced : No
Menu
00:00:00.000 : en:00:00:00.000
00:10:43.643 : en:00:10:43.643
00:21:30.288 : en:00:21:30.288
00:30:33.832 : en:00:30:33.832
00:38:31.309 : en:00:38:31.309
00:49:03.940 : en:00:49:03.940
00:59:53.590 : en:00:59:53.590
01:10:22.843 : en:01:10:22.843
01:19:45.780 : en:01:19:45.780
01:31:18.472 : en:01:31:18.472
01:39:51.777 : en:01:39:51.777
01:50:22.615 : en:01:50:22.615

Скриншоты

Скачать

Скачать торрент!

Как скачивать? · Что такое торрент? · Рейтинг и ограничения

Сайт не распространяет и не хранит электронные версии произведений, а лишь предоставляет доступ к создаваемому пользователями каталогу ссылок на торрент-файлы, которые содержат только списки хеш-сумм

[Профиль] [ЛС]
Показать сообщения:    
Ответить на тему

Текущее время: Сегодня 02:26

Часовой пояс: GMT + 4



Вы не можете начинать темы
Вы не можете отвечать на сообщения
Вы не можете редактировать свои сообщения
Вы не можете удалять свои сообщения
Вы не можете голосовать в опросах
Вы не можете прикреплять файлы к сообщениям
Вы не можете скачивать файлы