Адское дитя / Hell Baby (Роберт Бен Гарант / Robert Ben Garant, Томас Леннон / Thomas Lennon) [2013, США, ужасы, комедия, WEB-DLRip] VO

Ответить на тему
 
Автор Сообщение

user ®

Стаж: 7 лет 7 месяцев

Сообщений: 20008

Пост Пост: #1 от 01-Авг-2013 16:20

[Цитировать]

Адское дитяHell Baby- Страна: США
Жанр: ужасы, комедия
Год выпуска: 2013
Продолжительность: 01:34:00-Перевод: Одноголосый закадровый [den904]
Субтитры: нет
Режиссер: Роберт Бен Гарант / Robert Ben Garant, Томас Леннон / Thomas Lennon
В ролях: Роб Кордри, Лесли Бибб, Кигэн Майкл Ки, Рики Линдхоум, Роб Хюбел, Пол Шеер, Роберт Бен Гарант, Томас Леннон, Майкл Йен Блэк, Кумэйл Нанджиани, Дэйв Холмс, Бриттни Элгер-Описание: Молодая пара, со дня на день ждущая появления на свет своего первенца, въезжает в, мягко выражаясь, не самый новый и не самый крепкий в Новом Орлеане дом. Переезд ознаменовывается тем, что вскоре будущие родители уже вызывают к себе элитных ватиканских экзорцистов, надеясь, что они спасут их от младенца-демона.-


MPAA: R - Лицам до 17 лет обязательно присутствие взрослого-

Доп. Информация

Сценарий: Роберт Бен Гарант / Robert Ben Garant, Томас Леннон / Thomas Lennon
Продюсер: Джефф Калотта / Jeff Culotta, Пол Янг / Paul Young, Тед Хэмм / Ted Hamm, Шон МакКиттрик / Sean McKittrick, Питер Принципато / Peter Principato
Оператор: Чарльз Паперт / Charles Papert
Композитор: Майкл Фаррелл / Michael Farrell
Бюджет: $2 500 000
Мировая премьера: 20 января 2013
-Качество: WEB-DLRip (Исходник WEB-DL 720p)
Контейнер: AVI
Видео: XviD, 688x384 (16:9), 896 kbps, 23,976 fps, 0,141 bpp
Аудио: MP3 / 2.0 / 48 kHz / 128 kbps /-

Media Info

General
Complete name : G:\H3ll.B4by.2013.L1.WEBDLRip.700MB.avi
Format : AVI
Format/Info : Audio Video Interleave
File size : 695 MiB
Duration : 1h 34mn
Overall bit rate : 1 033 Kbps
Movie name : Hell.Baby.2013.XviD.WEB-DL.Rip.- СПАМ
Director : Odessit
Writing application : VirtualDubMod 1.5.10.3 (build 2550/release)
Writing library : VirtualDubMod build 2550/release
Video
ID : 0
Format : MPEG-4 Visual
Format profile : Advanced Simple@L5
Format settings, BVOP : 1
Format settings, QPel : No
Format settings, GMC : No warppoints
Format settings, Matrix : Default (H.263)
Codec ID : XVID
Codec ID/Hint : XviD
Duration : 1h 34mn
Bit rate : 896 Kbps
Width : 688 pixels
Height : 384 pixels
Display aspect ratio : 16:9
Frame rate : 23.976 fps
Color space : YUV
Chroma subsampling : 4:2:0
Bit depth : 8 bits
Scan type : Progressive
Compression mode : Lossy
Bits/(Pixel*Frame) : 0.141
Stream size : 603 MiB (87%)
Writing library : XviD 73
Audio
ID : 1
Format : MPEG Audio
Format version : Version 1
Format profile : Layer 3
Mode : Joint stereo
Codec ID : 55
Codec ID/Hint : MP3
Duration : 1h 34mn
Bit rate mode : Constant
Bit rate : 128 Kbps
Channel(s) : 2 channels
Sampling rate : 48.0 KHz
Compression mode : Lossy
Stream size : 86.1 MiB (12%)
Alignment : Aligned on interleaves
Interleave, duration : 42 ms (1.00 video frame)
Interleave, preload duration : 504 ms
Writing library : LAME3.99r
Encoding settings : -m j -V 4 -q 2 -lowpass 17 -b 128

Скриншот с названием фильма

Скриншоты

Скачать

Скачать торрент!

Как скачивать? · Что такое торрент? · Рейтинг и ограничения

Сайт не распространяет и не хранит электронные версии произведений, а лишь предоставляет доступ к создаваемому пользователями каталогу ссылок на торрент-файлы, которые содержат только списки хеш-сумм

[Профиль] [ЛС]
Показать сообщения:    
Ответить на тему

Текущее время: Сегодня 22:15

Часовой пояс: GMT + 4



Вы не можете начинать темы
Вы не можете отвечать на сообщения
Вы не можете редактировать свои сообщения
Вы не можете удалять свои сообщения
Вы не можете голосовать в опросах
Вы не можете прикреплять файлы к сообщениям
Вы не можете скачивать файлы