Девушки Эквестрии / My Little Pony. Equestria Girls (Джэйсон Тиссен / Jason Thiessen) [2013, Приключения, Комедия, Фэнтези, BDRip] VO (Трина Дубовицкая) + Eng

Ответить на тему
 
Автор Сообщение

user ®

Стаж: 12 лет

Сообщений: 15119

Пост Пост: #1 от 01-Авг-2013 09:41

[Цитировать]

Девушки Эквестрии / My Little Pony. Equestria Girls Страна: США, Канада
Жанр: Приключения, Комедия, Фэнтези
Продолжительность: 01:13:17
Год выпуска: 2013
Перевод: Одноголосый закадровый (Трина Дубовицкая)
Русские субтитры: нет
Режиссёр: Джэйсон Тиссен / Jason Thiessen
Роли озвучивали: Тара Стронг, Эшли Болл, Андреа Либман, Табита Сен-Жермен, Кэти Уэслак, Николь Оливер и другие.
Описание: Следуя за похитившим корону Кристальной Империи вором, Твайлайт Cпаркл попадает в альтернативный мир, в котором она превращается в девочку-подростка и сталкивается с самым серьёзным испытанием в своей жизни — старшей школой! При помощи своих новых друзей, которые напоминают ей оставшихся в Понивилле Эпплджек, Рэрити, Рэйнбоу Дэш, Пинки Пай и Флаттершай, она начинает поиски пропавшей короны. Поиски, которые изменят судьбы обоих параллельных миров.
Доп. информация: Официальный Blu-ray диск ожидается после 6 августа. Для эстетов в раздаче присутствует оригинальная аудиодорожка. Подходящие русские и английские субтитры есть в раздаче-исходнике. Песни не переведены.

Качество: BDRip (рип с [BD-ISO])
Формат: AVI
Видео: XviD, 720x400, 23.976 fps, 1925 kbps
Аудио 1 Rus: AC3 48 kHz, 6 ch, 448 kbps (Трина Дубовицкая)
Аудио 2 Eng: AC3 48 kHz, 6 ch, 448 kbps (Оригинальный звук)
Субтитры: отсутствуют

Скриншоты

Подробные технические данные

Полное имя : D:\Video\Mults\mlp.equestria.girls.2013.bdrip.rus.eng.aviФормат : AVIФормат/Информация : Audio Video InterleaveРазмер файла : 1,45 ГбайтПродолжительность : 1 ч. 13 м.Общий поток : 2835 Кбит/секПрограмма кодирования : VirtualDubMod 1.5.10.2 (build 2540/release)Библиотека кодирования : VirtualDubMod build 2540/release
ВидеоИдентификатор : 0Формат : MPEG-4 VisualПрофиль формата : Advanced Simple@L5Параметр BVOP формата : 1Параметр QPel формата : НетПараметр GMC формата : Без точки переходаПараметр матрицы формата : ВыборочнаяИдентификатор кодека : XVIDИдентификатор кодека/Подсказка : XviDПродолжительность : 1 ч. 13 м.Битрейт : 1925 Кбит/секШирина : 720 пикселейВысота : 400 пикселейСоотношение сторон : 16:9Частота кадров : 23,976 кадра/секЦветовое пространство : YUVСубдискретизация насыщенности : 4:2:0Битовая глубина : 8 битТип развёртки : ПрогрессивнаяМетод сжатия : С потерямиБит/(Пиксели*Кадры) : 0.279Размер потока : 1009 Мбайт (68%)Библиотека кодирования : XviD 64
Аудио #1Идентификатор : 1Формат : AC-3Формат/Информация : Audio Coding 3Расширение режима : CM (complete main)Параметр Endianness формата : BigИдентификатор кодека : 2000Продолжительность : 1 ч. 13 м.Вид битрейта : ПостоянныйБитрейт : 448 Кбит/секКаналы : 6 каналовРасположение каналов : Front: L C R, Side: L R, LFEЧастота : 48,0 КГцБитовая глубина : 16 битМетод сжатия : С потерямиРазмер потока : 235 Мбайт (16%)Выравнивание : Разделение по промежуткамПродолжительность промежутка : 42 мс. (1,00 видеокадр)Время предзагрузки промежутка : 500 мс.Заголовок : Трина Дубовицкая
Аудио #2Идентификатор : 2Формат : AC-3Формат/Информация : Audio Coding 3Расширение режима : CM (complete main)Параметр Endianness формата : BigИдентификатор кодека : 2000Продолжительность : 1 ч. 13 м.Вид битрейта : ПостоянныйБитрейт : 448 Кбит/секКаналы : 6 каналовРасположение каналов : Front: L C R, Side: L R, LFEЧастота : 48,0 КГцБитовая глубина : 16 битМетод сжатия : С потерямиРазмер потока : 235 Мбайт (16%)Выравнивание : Разделение по промежуткамПродолжительность промежутка : 42 мс. (1,00 видеокадр)Время предзагрузки промежутка : 500 мс.Заголовок : Оригинальный звук
Скачать

Скачать торрент! Девушки Эквестрии / My Little Pony. Equestria Girls (Джэйсон Тиссен / Jason Thiessen) [2013, Приключения, Комедия, Фэнтези, BDRip] VO (Трина Дубовицкая) + Eng

Как скачивать? · Что такое торрент? · Рейтинг и ограничения

Сайт не распространяет и не хранит электронные версии произведений, а лишь предоставляет доступ к создаваемому пользователями каталогу ссылок на торрент-файлы, которые содержат только списки хеш-сумм

[Профиль] [ЛС]
Показать сообщения:    
Ответить на тему

Текущее время: Сегодня 08:52

Часовой пояс: GMT + 4



Вы не можете начинать темы
Вы не можете отвечать на сообщения
Вы не можете редактировать свои сообщения
Вы не можете удалять свои сообщения
Вы не можете голосовать в опросах
Вы не можете прикреплять файлы к сообщениям
Вы не можете скачивать файлы