Шапито-шоу (Сергей Лобан) [2011, комедия, BDRip]

Ответить на тему
 
Автор Сообщение

user ®

Стаж: 7 лет 7 месяцев

Сообщений: 20008

Пост Пост: #1 от 01-Авг-2013 09:41

[Цитировать]

Шапито-шоу
Жанр: комедия
Год выпуска: 2011
Продолжительность: 01:46:37 + 01:50:50
Режиссёр: Сергей Лобан
В ролях:
Петр Мамонов
Вера Строкова
Сергей Попов
Алексей Подольский
Валерий Заводовский
Сергей Волжин-Ястребов
Юлия Говор
Дмитрий Новиков
Джим Авиньон
Сергей Кузьменко
Алексей Знаменский
Описание:
Шапито-шоу: Любовь и дружба
Новелла Любовь. Спешите видеть! Пронзительная история любви хрупкой девушки, которая мечтала стать принцессой и загадочного юноши, который скрывается от людей под именем Киберстранник. Море слез и бездна отчаяния! Могут ли Золушка и Человек-Невидимка быть вместе? Только у нас!
Новелла Дружба. Впервые на экране! Юноша, утративший способность слышать, но сохранивший пылающее сердце, и мальчик с ледяным осколком в глазу. Коварное предательство и несгибаемое мужество! Огненный Данко и Ледяной Кай, две стихии, столкнувшись, могут уничтожить Вселенную! Торопитесь видеть!
Шапито-шоу: Уважение и сотрудничество
Новелла Уважение. Смертельный номер! Великий мудрец, заплутавший во тьме, и его ученик, отчаянно стремящийся к свету. Они балансируют на краю пропасти, и пламя вулкана обжигает их лица. Король Лир и Звездный мальчик, их поезд судьбы стрелой несется сквозь горный тоннель. Ждет ли их свет в конце? Об этом в представлении!
Новелла Сотрудничество. Впервые в мире! Небывалое изобретение в области шоу-бизнеса! «Эрзац-звезда»! Существо, способное уничтожить любых конкурентов, и его создатель взлетят на самую вершину Олимпа, чтобы рухнуть оттуда в пучину вод. Инженер Гарин и Человек-Слон спасут или уничтожат друг друга! Это и еще многое -многое другое…!
Доп. информация:

Качество видео: BDRip
Формат видео: AVI
Видео: 704x368 (1.91:1), 25 fps, XviD build 50 ~2395 kbps avg, 0.37 bit/pixel
Аудио: 48 kHz, AC3 Dolby Digital, 3/2 (L,C,R,l,r) + LFE ch, ~448 kbps
Семпл

MediaInfo

Общее
Полное имя : D:\Torrent\Шапито-шоу\Шапито-шоу_4.32\Шапито-шоу_4.32\Шапито-шоу_ЛиД_4.32.avi
Формат : AVI
Формат/Информация : Audio Video Interleave
Профиль формата : OpenDML
Размер файла : 2,12 Гбайт
Продолжительность : 1 ч. 46 м.
Общий поток : 2850 Кбит/сек
Программа кодирования : VirtualDubModRus 1.5.10.2 (build 2540/release)
Библиотека кодирования : VirtualDubMod build 2540/release
Видео
Идентификатор : 0
Формат : MPEG-4 Visual
Профиль формата : Advanced Simple@L5
Параметр BVOP формата : 1
Параметр QPel формата : Нет
Параметр GMC формата : Без точки перехода
Параметр матрицы формата : Выборочная
Идентификатор кодека : XVID
Идентификатор кодека/Подсказка : XviD
Продолжительность : 1 ч. 46 м.
Битрейт : 2390 Кбит/сек
Ширина : 704 пикселя
Высота : 368 пикселей
Соотношение сторон : 1,913
Частота кадров : 25,000 кадров/сек
Цветовое пространство : YUV
Субдискретизация насыщенности : 4:2:0
Битовая глубина : 8 бит
Тип развёртки : Прогрессивная
Метод сжатия : С потерями
Бит/(Пиксели*Кадры) : 0.369
Размер потока : 1,78 Гбайт (84%)
Библиотека кодирования : XviD 1.2.1 (UTC 2008-12-04)
Аудио
Идентификатор : 1
Формат : AC-3
Формат/Информация : Audio Coding 3
Расширение режима : CM (complete main)
Параметр Endianness формата : Big
Идентификатор кодека : 2000
Продолжительность : 1 ч. 46 м.
Вид битрейта : Постоянный
Битрейт : 448 Кбит/сек
Каналы : 6 каналов
Расположение каналов : Front: L C R, Side: L R, LFE
Частота : 48,0 КГц
Битовая глубина : 16 бит
Метод сжатия : С потерями
Размер потока : 342 Мбайт (16%)
Выравнивание : Разделение по промежуткам
Продолжительность промежутка : 40 мс. (1,00 видеокадр)
Время предзагрузки промежутка : 500 мс.
Общее
Полное имя : D:\Torrent\Шапито-шоу\Шапито-шоу_4.32\Шапито-шоу_4.32\Шапито-шоу_УиС_4.32.avi
Формат : AVI
Формат/Информация : Audio Video Interleave
Профиль формата : OpenDML
Размер файла : 2,21 Гбайт
Продолжительность : 1 ч. 50 м.
Общий поток : 2850 Кбит/сек
Программа кодирования : VirtualDubModRus 1.5.10.2 (build 2540/release)
Библиотека кодирования : VirtualDubMod build 2540/release
Видео
Идентификатор : 0
Формат : MPEG-4 Visual
Профиль формата : Advanced Simple@L5
Параметр BVOP формата : 1
Параметр QPel формата : Нет
Параметр GMC формата : Без точки перехода
Параметр матрицы формата : Выборочная
Идентификатор кодека : XVID
Идентификатор кодека/Подсказка : XviD
Продолжительность : 1 ч. 50 м.
Битрейт : 2390 Кбит/сек
Ширина : 704 пикселя
Высота : 368 пикселей
Соотношение сторон : 1,913
Частота кадров : 25,000 кадров/сек
Цветовое пространство : YUV
Субдискретизация насыщенности : 4:2:0
Битовая глубина : 8 бит
Тип развёртки : Прогрессивная
Метод сжатия : С потерями
Бит/(Пиксели*Кадры) : 0.369
Размер потока : 1,85 Гбайт (84%)
Библиотека кодирования : XviD 1.2.1 (UTC 2008-12-04)
Аудио
Идентификатор : 1
Формат : AC-3
Формат/Информация : Audio Coding 3
Расширение режима : CM (complete main)
Параметр Endianness формата : Big
Идентификатор кодека : 2000
Продолжительность : 1 ч. 50 м.
Вид битрейта : Постоянный
Битрейт : 448 Кбит/сек
Каналы : 6 каналов
Расположение каналов : Front: L C R, Side: L R, LFE
Частота : 48,0 КГц
Битовая глубина : 16 бит
Метод сжатия : С потерями
Размер потока : 355 Мбайт (16%)
Выравнивание : Разделение по промежуткам
Продолжительность промежутка : 40 мс. (1,00 видеокадр)
Время предзагрузки промежутка : 500 мс.

Скриншот c названием фильма

Скриншоты

Скачать

Скачать торрент!

Как скачивать? · Что такое торрент? · Рейтинг и ограничения

Сайт не распространяет и не хранит электронные версии произведений, а лишь предоставляет доступ к создаваемому пользователями каталогу ссылок на торрент-файлы, которые содержат только списки хеш-сумм

[Профиль] [ЛС]
Показать сообщения:    
Ответить на тему

Текущее время: Сегодня 23:50

Часовой пояс: GMT + 4



Вы не можете начинать темы
Вы не можете отвечать на сообщения
Вы не можете редактировать свои сообщения
Вы не можете удалять свои сообщения
Вы не можете голосовать в опросах
Вы не можете прикреплять файлы к сообщениям
Вы не можете скачивать файлы