Менялы (Георгий Шенгелия) [1992, комедия, DVDRip]

Ответить на тему
 
Автор Сообщение

user ®

Стаж: 7 лет 7 месяцев

Сообщений: 20008

Пост Пост: #1 от 01-Авг-2013 09:40

[Цитировать]

Менялы
Жанр: комедия
Год выпуска: 1992
Продолжительность: 01:27:49
Режиссёр: Георгий Шенгелия
В ролях:
Владимир Ильин
Андрей Пономарев
Вадим Захарченко
Юрий Горин
Валентина Теличкина
Оксана Мысина
Ренат Давлетьяров
Наиль Идрисов
Олег Дурыгин
Алла Мещерякова
Валентина Березуцкая
Люсьена Овчинникова
Виктор Уральский
Описание:
Остроумная, остросюжетная комедия рассказывает об «авантюре времен денежной реформы» 1961 года, когда «весь многомиллионный советский народ» запустил в космос Гагарина, а иностранцы, «не раздумывая, меняли один американский доллар на 65 советских копеек».
«Всего лишь 20 лет отделяли тогда наш народ от светлой эры всего человечества», а два человека тем временем, по заданию подпольного миллионера, сомневающегося в отмене денег при коммунизме, занимались тем, что меняли деньги на медные монеты. Почему? Попробуйте догадаться сами, а не догадаетесь — посмотрите.
Доп. информация:

Качество видео: DVDRip
Формат видео: AVI
Видео: 688x528 (1.30:1), 25 fps, XviD build 65 ~2099 kbps avg, 0.23 bit/pixel
Аудио: 48 kHz, AC3 Dolby Digital, 2/0 (L,R) ch, ~256 kbps
Семпл

MediaInfo

Общее
Полное имя : C:\Films\Менялы\Менялы_1.45\Менялы_1.45.avi
Формат : AVI
Формат/Информация : Audio Video Interleave
Размер файла : 1,45 Гбайт
Продолжительность : 1 ч. 27 м.
Общий поток : 2365 Кбит/сек
Программа кодирования : VirtualDubModRus 1.5.10.2 (build 2540/release)
Библиотека кодирования : VirtualDubMod build 2540/release
Видео
Идентификатор : 0
Формат : MPEG-4 Visual
Профиль формата : Advanced Simple@L5
Параметр BVOP формата : 2
Параметр QPel формата : Нет
Параметр GMC формата : Без точки перехода
Параметр матрицы формата : Выборочная
Идентификатор кодека : XVID
Идентификатор кодека/Подсказка : XviD
Продолжительность : 1 ч. 27 м.
Битрейт : 2099 Кбит/сек
Ширина : 688 пикселей
Высота : 528 пикселей
Соотношение сторон : 4:3
Частота кадров : 25,000 кадров/сек
Цветовое пространство : YUV
Субдискретизация насыщенности : 4:2:0
Битовая глубина : 8 бит
Тип развёртки : Прогрессивная
Метод сжатия : С потерями
Бит/(Пиксели*Кадры) : 0.231
Размер потока : 1,29 Гбайт (89%)
Библиотека кодирования : XviD 65
Аудио
Идентификатор : 1
Формат : AC-3
Формат/Информация : Audio Coding 3
Расширение режима : CM (complete main)
Параметр Endianness формата : Big
Идентификатор кодека : 2000
Продолжительность : 1 ч. 27 м.
Вид битрейта : Постоянный
Битрейт : 256 Кбит/сек
Каналы : 2 канала
Расположение каналов : Front: L R
Частота : 48,0 КГц
Битовая глубина : 16 бит
Метод сжатия : С потерями
Задержка видео : 124 мс.
Размер потока : 161 Мбайт (11%)
Выравнивание : Разделение по промежуткам
Продолжительность промежутка : 40 мс. (1,00 видеокадр)
Время предзагрузки промежутка : 500 мс.

Скриншоты

Скачать

Скачать торрент!

Как скачивать? · Что такое торрент? · Рейтинг и ограничения

Сайт не распространяет и не хранит электронные версии произведений, а лишь предоставляет доступ к создаваемому пользователями каталогу ссылок на торрент-файлы, которые содержат только списки хеш-сумм

[Профиль] [ЛС]
Показать сообщения:    
Ответить на тему

Текущее время: Сегодня 14:35

Часовой пояс: GMT + 4



Вы не можете начинать темы
Вы не можете отвечать на сообщения
Вы не можете редактировать свои сообщения
Вы не можете удалять свои сообщения
Вы не можете голосовать в опросах
Вы не можете прикреплять файлы к сообщениям
Вы не можете скачивать файлы