Кочегар (Алексей Балабанов) [2010, драма, криминал, DVDRip-AVC]

Ответить на тему
 
Автор Сообщение

user ®

Стаж: 7 лет 7 месяцев

Сообщений: 20008

Пост Пост: #1 от 01-Авг-2013 09:40

[Цитировать]

Кочегар
Жанр: драма, криминал
Год выпуска: 2010
Продолжительность: 01:23:55
Режиссёр: Алексей Балабанов
В ролях: Михаил Скрябин, Юрий Матвеев, Александр Мосин, Аида Тумутова, Анна Коротаева, Вячеслав Павлють, Алина Политова, Варвара Белокурова, Вячеслав Тельнов, Петр Семак
Описание: Время и место действия: Санкт-Петербург, середина 1990-х годов, главный герой — майор в отставке, работает в кочегарке и в свободное время на старенькой печатной машинке пишет рассказ. Однако, затворника-кочегара часто посещают самые разные гости…
Доп. информация: Было много жалоб на звук в исходном DVD - плохо слышно речь. Fix Audio +6dB на C.
Семпл
Качество видео: DVDRip-AVC
Формат видео: MKV
Видео: AVC, 720x576@1024x576 (16:9), 25 fps, 1984 Kbps
Аудио: AC3, 48 kHz, 6 ch, 448 Kbps

MediaInfo

General
Complete name : X:\Kochegar.2010.DVDRip-AVC.mkv
Format : Matroska
Format version : Version 2
File size : 1.43 GiB
Duration : 1h 23mn
Overall bit rate : 2 432 Kbps
Encoded date : UTC 2012-11-26 15:10:55
Writing application : mkvmerge v5.8.0 ('No Sleep / Pillow') built on Sep 2 2012 15:37:04
Writing library : libebml v1.2.3 + libmatroska v1.3.0
Video
ID : 1
Format : AVC
Format/Info : Advanced Video Codec
Format profile : High@L4.1
Format settings, CABAC : Yes
Format settings, ReFrames : 15 frames
Codec ID : V_MPEG4/ISO/AVC
Duration : 1h 23mn
Bit rate : 1 984 Kbps
Width : 720 pixels
Height : 576 pixels
Display aspect ratio : 16:9
Frame rate mode : Constant
Frame rate : 25.000 fps
Standard : PAL
Color space : YUV
Chroma subsampling : 4:2:0
Bit depth : 8 bits
Scan type : Progressive
Bits/(Pixel*Frame) : 0.191
Stream size : 1.13 GiB (80%)
Writing library : x264 core 128 r2216M 198a7ea
Encoding settings : cabac=1 / ref=16 / deblock=1:0:0 / analyse=0x3:0x133 / me=tesa / subme=10 / psy=1 / psy_rd=1.00:0.20 / mixed_ref=1 / me_range=32 / chroma_me=1 / trellis=2 / 8x8dct=1 / cqm=0 / deadzone=21,11 / fast_pskip=1 / chroma_qp_offset=-3 / threads=2 / lookahead_threads=1 / sliced_threads=0 / nr=0 / decimate=1 / interlaced=0 / bluray_compat=0 / constrained_intra=0 / bframes=10 / b_pyramid=1 / b_adapt=2 / b_bias=0 / direct=3 / weightb=1 / open_gop=0 / weightp=2 / keyint=250 / keyint_min=25 / scenecut=40 / intra_refresh=0 / rc_lookahead=40 / rc=2pass / mbtree=1 / bitrate=1984 / ratetol=1.0 / qcomp=0.60 / qpmin=10 / qpmax=51 / qpstep=4 / cplxblur=20.0 / qblur=0.5 / ip_ratio=1.40 / aq=1:1.00
Language : Russian
Default : Yes
Forced : No
Audio
ID : 2
Format : AC-3
Format/Info : Audio Coding 3
Mode extension : CM (complete main)
Format settings, Endianness : Big
Codec ID : A_AC3
Duration : 1h 23mn
Bit rate mode : Constant
Bit rate : 448 Kbps
Channel(s) : 6 channels
Channel positions : Front: L C R, Side: L R, LFE
Sampling rate : 48.0 KHz
Bit depth : 16 bits
Compression mode : Lossy
Stream size : 269 MiB (18%)
Language : Russian
Default : Yes
Forced : No

Скриншоты


Скачать

Скачать торрент!

Как скачивать? · Что такое торрент? · Рейтинг и ограничения

Сайт не распространяет и не хранит электронные версии произведений, а лишь предоставляет доступ к создаваемому пользователями каталогу ссылок на торрент-файлы, которые содержат только списки хеш-сумм

[Профиль] [ЛС]
Показать сообщения:    
Ответить на тему

Текущее время: Сегодня 14:10

Часовой пояс: GMT + 4



Вы не можете начинать темы
Вы не можете отвечать на сообщения
Вы не можете редактировать свои сообщения
Вы не можете удалять свои сообщения
Вы не можете голосовать в опросах
Вы не можете прикреплять файлы к сообщениям
Вы не можете скачивать файлы