Слуга государев (Олег Рясков) [2007, боевик, приключения, военный, история, BDRip] [Международная версия] MVO (Rus)

Ответить на тему
 
Автор Сообщение

user ®

Стаж: 7 лет 7 месяцев

Сообщений: 20008

Пост Пост: #1 от 01-Авг-2013 09:39

[Цитировать]

Слуга государев
«Во имя чести и любви!»- Год выпуска: 2007
Жанр: боевик, приключения, военный, история
Продолжительность: 01:56:56-Перевод: Профессиональный (многоголосый закадровый) R5
Субтитры: нет-Режиссёр: Олег Рясков
В ролях: Ольга Арнтгольц (маркиза Гретхен Фон Шомберг), Александр Бухаров (Григорий Воронов), Алексей Чадов (Энжи), Николай Чиндяйкин (хозяин постоялого двора), Владислав Демченко (Принц Филлип), Ксения Князева (Шарлотта Де Монтеррас), Валерий Маликов (граф Антуан Де Ла Буш), Дмитрий Миллер (шевалье Шарль Де Брезе), Елена Плаксина (Прасковья), Андрей Рыклин (Александр Меньшиков), Дарья Семенова (Анки), Иван Шибанов (маркиз Фон Шомберг)
Описание: 1709 год. Европу раздирают междоусобные войны. Францией все еще правит стареющий Людовик XIV, а подвиги мушкетеров еще не забыты. В Версале два французских дворянина, поссорившись из-за карточной игры, нарушают существующий запрет на дуэли и оказываются между тюрьмой и плахой палача. Милостью короля казнь заменена ссылкой «на пользу государства».
Один из них должен отправиться на службу ко двору российского царя Петра Первого, другой - ко двору шведского короля Карла XII, чтобы шпионить в пользу Франции. Россия и Швеция находятся в состоянии войны, и герои должны прибыть к местам назначения как раз накануне Полтавской битвы. Однако оказывается, что ссылка - всего лишь предлог и на самом деле им уготовано место в первых рядах сражающихся друг против друга армий. Чтобы спасти любимого, подруга одного из героев решается на отчаянный шаг...
В России тем временем ползут слухи о мистическом черном всаднике, якобы причастном к исчезновению людей... Проведенное расследование подтверждает, что загадочные появления мистического всадника - правда. Все герои встретятся при самых неожиданных обстоятельствах, пережив немало опасных приключений. Но чем закончится эта встреча? Ведь они до сих пор считают дело чести неоконченным...- -Качество видео: BDRip [BluRay {HDCLUB} 1080p]
Формат видео: AVI
Видео: XviD, 704x304 (2.35:1), 25 fps, ~1341 kbps, 0.251 bpp
Аудио: AC3, 48 kHz, 3/2 (L,C,R,l,r) + LFE ch, 448 kbps-
  • Прежде всего хочу разьяснить, что дорога, помеченная в [url=http://***/forum/viewtopic.php?t=4279475]BD[/url] как русская, таковой по сути не является. Но ошибка оправдана. Эта дорога Multilanguage. В ней все говорят на оригинальных языках персонажей: шведы - на шведском, немцы - на немецком, поляки на польском, французы - на французском, украинцы - на украинском, ну и, естественно, русские - на русском.
  • Для этого немцы и вложили в блюр полные немецкие субтитры. Специально, видимо, для этой дороги (типа как в Апокалипсисе Мела Гибсона). Мы, соответственно, подготовили аналогичные русские субтитры на все языки кроме русского, разумеется; за исходник взяты субтитры с лицензионного DVD. С него же взята DTS дорога (отличнейшего качества кстати, если только не считать так горячо любимого нашими лицензионщиками клипинга, который я убрал), в которой на всю иностранную речь есть закадровый перевод.

-

Знаете ли вы, что...

  • Режиссер фильма встречался перед началом съемок с супругой потомка Моро де Бразе - Ириной де Бразе, живущей в родовом замке во Франции, и обсуждал с ней детали сюжета.
  • Прототипами принца Филиппа и графа де Гиша, как ни странно, были не Филипп I Орлеанский и Арман де Грамон, граф де Гиш, которых связывали тесные отношения, но которые ко времени действия фильма (1709 год) уже умерли. В фильме показаны Филипп II Орлеанский (35 лет в 1709 году) и Антуан V де Грамон, герцог де Гиш (37 лет в 1709 году). Филипп II был сыном Филиппа I, и после смерти Людовика XIV стал регентом Франции. Герцог де Гиш принимал участие во всех военных кампаниях Людовика XIV, начиная с 1688 г., и в 1724 году стал маршалом Франции.

MediaInfo

General
Complete name : Sluga.gosudarev.2007.BDRip.XviD.MVO.R5.avi
Format : AVI
Format/Info : Audio Video Interleave
File size : 1.47 GiB
Duration : 1h 56mn
Overall bit rate : 1 799 Kbps
Writing application : VirtualDubMod 1.5.10.3 (build 2550/release)
Writing library : VirtualDubMod build 2550/release
Video
ID : 0
Format : MPEG-4 Visual
Format profile : Advanced Simple@L5
Format settings, BVOP : 2
Format settings, QPel : No
Format settings, GMC : No warppoints
Format settings, Matrix : Custom
Codec ID : XVID
Codec ID/Hint : XviD
Duration : 1h 56mn
Bit rate : 1 341 Kbps
Width : 704 pixels
Height : 304 pixels
Display aspect ratio : 2.35:1
Frame rate : 25.000 fps
Color space : YUV
Chroma subsampling : 4:2:0
Bit depth : 8 bits
Scan type : Progressive
Compression mode : Lossy
Bits/(Pixel*Frame) : 0.251
Stream size : 1.10 GiB (75%)
Writing library : XviD 65
Audio
ID : 1
Format : AC-3
Format/Info : Audio Coding 3
Mode extension : CM (complete main)
Codec ID : 2000
Duration : 1h 56mn
Bit rate mode : Constant
Bit rate : 448 Kbps
Channel(s) : 6 channels
Channel positions : Front: L C R, Side: L R, LFE
Sampling rate : 48.0 KHz
Bit depth : 16 bits
Compression mode : Lossy
Stream size : 375 MiB (25%)
Alignment : Split accross interleaves
Interleave, duration : 40 ms (1.00 video frame)
Interleave, preload duration : 500 ms
Built with Flash Release [url=http://***/forum/viewtopic.php?t=1090620]⇒[/url]
Скачать

Скачать торрент!

Как скачивать? · Что такое торрент? · Рейтинг и ограничения

Сайт не распространяет и не хранит электронные версии произведений, а лишь предоставляет доступ к создаваемому пользователями каталогу ссылок на торрент-файлы, которые содержат только списки хеш-сумм

[Профиль] [ЛС]
Показать сообщения:    
Ответить на тему

Текущее время: Сегодня 12:55

Часовой пояс: GMT + 4



Вы не можете начинать темы
Вы не можете отвечать на сообщения
Вы не можете редактировать свои сообщения
Вы не можете удалять свои сообщения
Вы не можете голосовать в опросах
Вы не можете прикреплять файлы к сообщениям
Вы не можете скачивать файлы