Антидурь (Владимир Щегольков) [2007, криминальная комедия, HDTVRip-AVC]

Ответить на тему
 
Автор Сообщение

user ®

Стаж: 7 лет 7 месяцев

Сообщений: 20008

Пост Пост: #1 от 01-Авг-2013 09:39

[Цитировать]

Антидурь
Жанр: криминальная комедия
Год выпуска: 2007
Продолжительность: 01:31:13
Режиссёр: Владимир Щегольков
В ролях: Дмитрий Дюжев, Владимир Турчинский, Татьяна Догилева, Александр Баширов, Игорь Миркурбанов, Мария Семкина, Владимир Симонов, Олег Сорокин, Игорь Яцко, Григорий Перель, Арина Прокопьева, Василий Стрельников, Сергей Апрельский, Владимир Виноградов, Светлана Малюкова, Габриэлла Мариани, Александра Назарова, Дарья Погодина, Дарья Сагалова, Илья Хамбудагов, Олег Шеремет-Доска, Наталья Позднякова, Светлана Мигунова-Дали, Роман Крюков, Адам Булгучев, Марина Ерисова
Описание: Пpoвaлить зaдaниe, yгpoбив пo oшибкe в Лoндoнe извecтнoгo oлигapxa?! Taкoгo cпeцcлyжбы нe пpoщaют! Гepoи фильмa, cпeцaгeнты Bиктop Beльмишeв и Bлaд Кoшкин, oкaзывaютcя «cпиcaнными» в нeпoнятнoe зaвeдeниe co cтpaнным нaзвaниeм «Aнтидypь», гдe иx бoccoм oтнынe cтaнoвитcя cypoвый пoлкoвник Зинaидa Mopoз, и нe дaeт cocкyчитьcя кpиминaлиcт Hикoлaй Paкoв. Haши гepoи coвceм былo впaли в oтчaяниe, пpимepяя нa ceбя poль «кaнцeляpcкиx кpыc», кaк нeoжидaннo в paзмepeннoe cyщecтвoвaниe двyx дpyзeй вpывaeтcя cлyчaй, пpeвpaщaя жизнь в чepeдy нeвepoятныx coбытий и нeлeпыx aвaнтюp. Tyт-тo Beлик и Кoшкa пoнимaют, чтo нeдooцeнили нoвoe «мecтo paбoты». Им пpeдcтoят нeвepoятныe пpиключeния и нeшyтoчныe пepипeтии c пoимкoй xитpoyмнoгo нapкoбapoнa Peзo, игpa в кoшки-мышки c eгo пoдeльникaми-гoлoвopeзaми и cпaceниe, кaк этo ни cтpaннo, нacтoящeй любви!..
Доп. информация:

Семпл: http://multi-up.com/805011
Качество видео: HDTVRip-AVC
Формат видео: MKV
Видео: MPEG-4 AVC, 1024x576 (16:9), 23.976 fps, 3000 Kbps
Аудио: АС3, 48 KHz, 448 Kbps, 6 ch

MediaInfo

Уникальный идентификатор : 220102559933181856739686526929589980610 (0xA596360AB9C2DAB49B083B11A09F4DC2)
Полное имя : F:\Antidur.2007.HDTVRip(AVC).FilmRus.mkv
Формат : Matroska
Версия формата : Version 2
Размер файла : 2,19 Гбайт
Продолжительность : 1 ч. 31 м.
Общий поток : 3441 Кбит/сек
Дата кодирования : UTC 2012-11-21 21:50:25
Программа кодирования : mkvmerge v4.9.1 ('Ich will') сборка от Jul 11 2011 23:53:15
Библиотека кодирования : libebml v1.2.1 + libmatroska v1.1.1
Видео
Идентификатор : 1
Формат : AVC
Формат/Информация : Advanced Video Codec
Профиль формата : High@L4.1
Параметр CABAC формата : Да
Параметр ReFrames формата : 8 кадров
Идентификатор кодека : V_MPEG4/ISO/AVC
Продолжительность : 1 ч. 31 м.
Битрейт : 3000 Кбит/сек
Ширина : 1024 пикселя
Высота : 576 пикселей
Соотношение сторон : 16:9
Режим частоты кадров : Постоянный
Частота кадров : 23,976 кадра/сек
Цветовое пространство : YUV
Субдискретизация насыщенности : 4:2:0
Битовая глубина : 8 бит
Тип развёртки : Прогрессивная
Бит/(Пиксели*Кадры) : 0.212
Размер потока : 1,86 Гбайт (85%)
Библиотека кодирования : x264 core 116 r2044 392e762
Настройки программы : cabac=1 / ref=8 / deblock=1:-2:-1 / analyse=0x3:0x112 / me=umh / subme=8 / psy=1 / psy_rd=1.00:0.20 / mixed_ref=1 / me_range=32 / chroma_me=1 / trellis=2 / 8x8dct=1 / cqm=0 / deadzone=21,11 / fast_pskip=0 / chroma_qp_offset=-3 / threads=3 / sliced_threads=0 / nr=0 / decimate=0 / interlaced=0 / bluray_compat=0 / constrained_intra=0 / bframes=10 / b_pyramid=2 / b_adapt=2 / b_bias=0 / direct=3 / weightb=1 / open_gop=0 / weightp=2 / keyint=240 / keyint_min=23 / scenecut=40 / intra_refresh=0 / rc=2pass / mbtree=0 / bitrate=3000 / ratetol=1.0 / qcomp=0.60 / qpmin=0 / qpmax=69 / qpstep=4 / cplxblur=20.0 / qblur=0.5 / ip_ratio=1.40 / pb_ratio=1.30 / aq=1:1.00
Default : Да
Forced : Нет
Аудио
Идентификатор : 2
Формат : AC-3
Формат/Информация : Audio Coding 3
Расширение режима : CM (complete main)
Параметр Endianness формата : Big
Идентификатор кодека : A_AC3
Продолжительность : 1 ч. 31 м.
Вид битрейта : Постоянный
Битрейт : 448 Кбит/сек
Каналы : 6 каналов
Расположение каналов : Front: L C R, Side: L R, LFE
Частота : 48,0 КГц
Битовая глубина : 16 бит
Метод сжатия : С потерями
Размер потока : 292 Мбайт (13%)
Default : Да
Forced : Нет

Скриншоты


Скачать

Скачать торрент!

Как скачивать? · Что такое торрент? · Рейтинг и ограничения

Сайт не распространяет и не хранит электронные версии произведений, а лишь предоставляет доступ к создаваемому пользователями каталогу ссылок на торрент-файлы, которые содержат только списки хеш-сумм

[Профиль] [ЛС]
Показать сообщения:    
Ответить на тему

Текущее время: Сегодня 20:05

Часовой пояс: GMT + 4



Вы не можете начинать темы
Вы не можете отвечать на сообщения
Вы не можете редактировать свои сообщения
Вы не можете удалять свои сообщения
Вы не можете голосовать в опросах
Вы не можете прикреплять файлы к сообщениям
Вы не можете скачивать файлы