Другое лицо (Игорь Штернберг) [2008, драма, DVDRip]

Ответить на тему
 
Автор Сообщение

user ®

Стаж: 7 лет 7 месяцев

Сообщений: 20008

Пост Пост: #1 от 01-Авг-2013 09:37

[Цитировать]

Другое лицо
Жанр: драма
Год выпуска: 2008
Продолжительность: 01:33:08
Режиссер: Игорь Штернберг
В ролях: Александра Афанасьева-Шевчук, Илья Любимов, Дмитрий Волков, Елена Ручкина, Расми (Рамзес) Джабраилов, Виктор Штернберг, Сергей Разбегаев, Олег Шкловский, Наталья Павленкова, Игорь Кириллов, Никита Прозоровский-Семёнов, Владимир Фекленко, Клара Коркан, Владимир Михитаров, Алиса Замуриенко, Светлана Чигрина, Дмитрий Грачев
Описание: В результате неудачного опыта, проводимого Верой в лаборатории одного химического института, молодая женщина получает сильный ожог лица. Врачам удается спасти ее жизнь, но не лицо – никто не хочет браться за столь сложную операцию, пока не появляется молодой и талантливый хирург Максим Переславский. Он решает сделать Вере операцию, причем совершенно бесплатно. Когда снимают бинты, Вера не узнаёт себя, из зеркала на нее смотрит очень красивое, но совершенно чужое лицо...
Качество видео: DVDRip
Формат видео: AVI
Видео: 720x400 (1.80:1), 25 fps, XviD build 65 ~2040 kbps avg, 0.28 bit/pixel
Аудио: 48 kHz, AC3 Dolby Digital, 2/0 (L,R) ch, ~192.00 kbps avg

Скриншоты

Медиаинфо

General
Полное имя : F:\002 мои раздачи\Другое лицо 1,46\drugoe_lico_1.46_[torrents.ru]_by_bm11.avi
Формат : AVI
Формат/Информация : Audio Video Interleave
Размер файла : 1.46 GiB
Продолжительность : 1h 33mn
Общий поток : 2 242 Kbps
Режиссёр : bm11
Программа кодирования : VirtualDubMod 1.5.10.2 (build 2540/release)
Video
Идентификатор : 0
Формат : MPEG-4 Visual
Профайл формата : Advanced Simple@L5
Параметры BVOP формата : Yes
Параметры QPel формата : No
Параметры GMC формата : No warppoints
Параметры матрицы формата : Custom
Идентификатор кодека : XVID
Идентификатор кодека/Подсказка : XviD
Продолжительность : 1h 33mn
Битрейт : 2 041 Kbps
Ширина : 720 pixels
Высота : 400 pixels
Соотношение кадра : 16:9
Частота кадров : 25.000 fps
ColorSpace : YUV
ChromaSubsampling : 4:2:0
BitDepth/String : 8 bits
Тип развёртки : Progressive
Бит/(Пиксели*Кадры) : 0.283
Размер потока : 1.33 GiB (91%)
Библиотека кодирования : XviD 65
Audio
Идентификатор : 1
Формат : AC-3
Формат/Информация : Audio Coding 3
Format_Settings_ModeExtension : CM (complete main)
Идентификатор кодека : 2000
Продолжительность : 1h 33mn
Вид битрейта : Constant
Битрейт : 192 Kbps
Канал(ы) : 2 channels
Расположение каналов : Front: L R
Частота : 48.0 KHz
BitDepth/String : 16 bits
Размер потока : 128 MiB (9%)
Выравнивание : Split accross interleaves
Продолжительность промежутка : 40 ms (1.00 video frame)
Время предзагрузки промежутка : 500 ms
Скачать

Скачать торрент!

Как скачивать? · Что такое торрент? · Рейтинг и ограничения

Сайт не распространяет и не хранит электронные версии произведений, а лишь предоставляет доступ к создаваемому пользователями каталогу ссылок на торрент-файлы, которые содержат только списки хеш-сумм

[Профиль] [ЛС]
Показать сообщения:    
Ответить на тему

Текущее время: Сегодня 00:43

Часовой пояс: GMT + 4



Вы не можете начинать темы
Вы не можете отвечать на сообщения
Вы не можете редактировать свои сообщения
Вы не можете удалять свои сообщения
Вы не можете голосовать в опросах
Вы не можете прикреплять файлы к сообщениям
Вы не можете скачивать файлы