Дублёр (Евгений Абызов) [2012, комедия, BDRip-AVC]

Ответить на тему
 
Автор Сообщение

user ®

Стаж: 7 лет 7 месяцев

Сообщений: 20008

Пост Пост: #1 от 01-Авг-2013 09:37

[Цитировать]

Дублёр
Жанр: комедия
Год выпуска: 2012
Продолжительность: 01:23:34
Режиссёр: Евгений Абызов
В ролях: Александр Ревва, Кристина Асмус, Ксения Буравская, Варвара Малкова, Александр Сазонов, Людмила Артемьева, Дмитрий Хрусталёв, Татьяна Орлова, Анна Назарова, Юлия Гришина, Михаил Крылов, Алексей Огурцов, Юлия Беретта, Лилия Шарыкина, Нино Кантария, Илья Костюков, Степан Юрпалов, Веста Буркот
Описание: Главный герой нашей истории - успешный актер, звезда шоу-бизнеса Игорь Успенский. Его жизнь - сплошные съемки, концерты, презентации, корпоративы, интервью и светские тусовки. Он вынужден «крутиться» день и ночь, у него нет выходных и праздников. А его очаровательная жена и прекрасная дочка видят его в лучшем случае поздно ночью, когда он приезжает домой, чтобы поспать хотя бы пару часов. Но все труды не проходят даром. Игорь очень популярен, и однажды его кандидатуру выдвигают на премию «Человек года». Теперь ему нужно еще больше времени, чтобы победить главного конкурента - певца Михаила Стасова, главные хиты которого свели с ума всех женщин России...

Семпл: http://multi-up.com/826410
Качество видео: BDRip-AVC
Формат видео: MKV
Видео: H.264, 1034x470 (2.37:1), 23,976 fps, 2121 Кbps, 0.194 bit/pixel
Аудио: 48 kHz, AC3 Dolby Digital, 3/2 (L,C,R,l,r) + LFE ch, 384.00 kbps avg

MI

Уникальный идентификатор : 233657604167999519882194973436639031979 (0xAFC8D1522BFEB718B7BE8C5F6B69B2AB)
Полное имя : Дублер.2013.BDRip.mkv
Формат : Matroska
Версия формата : Version 2
Размер файла : 1,46 Гбайт
Продолжительность : 1 ч. 23 м.
Общий поток : 2503 Кбит/сек
Дата кодирования : UTC 2013-02-01 07:06:15
Программа кодирования : mkvmerge v3.2.0 ('Beginnings') built on Feb 12 2010 16:46:17
Библиотека кодирования : libebml v0.7.9 + libmatroska v0.8.1
Видео
Идентификатор : 1
Формат : AVC
Формат/Информация : Advanced Video Codec
Профиль формата : High@L4.1
Параметр CABAC формата : Да
Параметр ReFrames формата : 10 кадров
Идентификатор кодека : V_MPEG4/ISO/AVC
Продолжительность : 1 ч. 23 м.
Битрейт : 2121 Кбит/сек
Ширина : 1034 пикселя
Высота : 470 пикселей
Соотношение сторон : 2,2:1
Режим частоты кадров : Постоянный
Частота кадров : 24,000 кадра/сек
Цветовое пространство : YUV
Субдискретизация насыщенности : 4:2:0
Битовая глубина : 8 бит
Тип развёртки : Прогрессивная
Бит/(Пиксели*Кадры) : 0.182
Размер потока : 1,21 Гбайт (83%)
Библиотека кодирования : x264 core 129 r2230 1cffe9f
Настройки программы : cabac=1 / ref=10 / deblock=1:-2:-1 / analyse=0x3:0x133 / me=umh / subme=11 / psy=1 / psy_rd=1.10:0.05 / mixed_ref=1 / me_range=32 / chroma_me=1 / trellis=2 / 8x8dct=1 / cqm=0 / deadzone=21,11 / fast_pskip=0 / chroma_qp_offset=-3 / threads=6 / lookahead_threads=1 / sliced_threads=0 / nr=0 / decimate=1 / interlaced=0 / bluray_compat=0 / constrained_intra=0 / bframes=8 / b_pyramid=2 / b_adapt=2 / b_bias=0 / direct=3 / weightb=1 / open_gop=0 / weightp=2 / keyint=240 / keyint_min=22 / scenecut=40 / intra_refresh=0 / rc=2pass / mbtree=0 / bitrate=2121 / ratetol=1.0 / qcomp=0.70 / qpmin=10 / qpmax=61 / qpstep=4 / cplxblur=20.0 / qblur=0.5 / ip_ratio=1.40 / pb_ratio=1.30 / aq=1:0.70
Язык : English
Default : Нет
Forced : Нет
Аудио
Идентификатор : 2
Формат : AC-3
Формат/Информация : Audio Coding 3
Расширение режима : CM (complete main)
Параметр Endianness формата : Big
Идентификатор кодека : A_AC3
Продолжительность : 1 ч. 23 м.
Вид битрейта : Постоянный
Битрейт : 384 Кбит/сек
Каналы : 6 каналов
Расположение каналов : Front: L C R, Side: L R, LFE
Частота : 48,0 КГц
Битовая глубина : 16 бит
Метод сжатия : С потерями
Размер потока : 230 Мбайт (15%)
Язык : Russian
Default : Да
Forced : Нет
Меню
00:00:00.000 : en:00:00:00.000
00:06:00.375 : en:00:06:00.375
00:13:55.833 : en:00:13:55.833
00:22:29.875 : en:00:22:29.875
00:27:09.667 : en:00:27:09.667
00:36:01.042 : en:00:36:01.042
00:42:06.667 : en:00:42:06.667
00:50:57.042 : en:00:50:57.042
01:00:46.458 : en:01:00:46.458
01:05:38.167 : en:01:05:38.167
01:10:03.708 : en:01:10:03.708
01:20:13.292 : en:01:20:13.292

Скриншоты

Скачать

Скачать торрент!

Как скачивать? · Что такое торрент? · Рейтинг и ограничения

Сайт не распространяет и не хранит электронные версии произведений, а лишь предоставляет доступ к создаваемому пользователями каталогу ссылок на торрент-файлы, которые содержат только списки хеш-сумм

[Профиль] [ЛС]
Показать сообщения:    
Ответить на тему

Текущее время: Сегодня 17:44

Часовой пояс: GMT + 4



Вы не можете начинать темы
Вы не можете отвечать на сообщения
Вы не можете редактировать свои сообщения
Вы не можете удалять свои сообщения
Вы не можете голосовать в опросах
Вы не можете прикреплять файлы к сообщениям
Вы не можете скачивать файлы