Снайпер Саха (Никита Аржаков) [2010, драма, военный, DVDRip]

Ответить на тему
 
Автор Сообщение

user ®

Стаж: 7 лет 7 месяцев

Сообщений: 20008

Пост Пост: #1 от 01-Авг-2013 09:36

[Цитировать]

Снайпер Саха
Жанр: драма, военный
Год выпуска: 2010
Продолжительность: 01:19:04
Режиссёр: Никита Аржаков
В ролях: Дьулустан Семенов,
Спартак Федотов, Ирина Колосова, Вячеслав Молчанов, Сергей Попович, Степан Киргизов, Вася Андросов
Описание: Снайпер-якут, вопреки законам военного времени, сохранил жизнь немецкому мальчику — гитлерюгенду…
Качество видео: DVDRip
Формат видео: AVI
Видео: divx 4, 720x576, 4:3, 25.000 fps, 1997 kbps
Аудио: rus, mpeg layer 3, 44.1 khz, 128 kbps, stereo
Сэмпл: http://rusfolder.net/files/35470702

MediaInfo

Format : AVI
Format/Info : Audio Video Interleave
File size : 1.18 GiB
Duration : 1h 19mn
Overall bit rate : 2 105 Kbps
Writing application : VirtualDubMod 1.5.10.2 (build 2542/release)
Writing library : VirtualDubMod build 2542/release
Video
ID : 0
Format : MPEG-4 Visual
Format profile : Simple@L1
Format settings, BVOP : No
Format settings, QPel : No
Format settings, GMC : No warppoints
Format settings, Matrix : Default (H.263)
Codec ID : DIVX
Codec ID/Info : Project Mayo
Codec ID/Hint : DivX 4
Duration : 1h 19mn
Bit rate : 1 997 Kbps
Width : 720 pixels
Height : 576 pixels
Display aspect ratio : 4:3
Frame rate : 25.000 fps
Standard : PAL
Color space : YUV
Chroma subsampling : 4:2:0
Bit depth : 8 bits
Scan type : Progressive
Compression mode : Lossy
Bits/(Pixel*Frame) : 0.193
Stream size : 1.10 GiB (95%)
Audio
ID : 1
Format : MPEG Audio
Format version : Version 1
Format profile : Layer 3
Codec ID : 55
Codec ID/Hint : MP3
Duration : 1h 0mn
Bit rate mode : Constant
Bit rate : 128 Kbps
Channel(s) : 2 channels
Sampling rate : 44.1 KHz
Compression mode : Lossy
Stream size : 55.8 MiB (5%)
Alignment : Split accross interleaves
Interleave, duration : 52 ms (1.30 video frame)
Interleave, preload duration : 500 ms
Writing library : LAME3.98

Скриншоты с названием фильма

Скриншоты

Скачать

Скачать торрент!

Как скачивать? · Что такое торрент? · Рейтинг и ограничения

Сайт не распространяет и не хранит электронные версии произведений, а лишь предоставляет доступ к создаваемому пользователями каталогу ссылок на торрент-файлы, которые содержат только списки хеш-сумм

[Профиль] [ЛС]
Показать сообщения:    
Ответить на тему

Текущее время: Сегодня 00:20

Часовой пояс: GMT + 4



Вы не можете начинать темы
Вы не можете отвечать на сообщения
Вы не можете редактировать свои сообщения
Вы не можете удалять свои сообщения
Вы не можете голосовать в опросах
Вы не можете прикреплять файлы к сообщениям
Вы не можете скачивать файлы