Рассказы (Михаил Сегал) [2012, Драма, Комедия, BDRip-AVC]

Ответить на тему
 
Автор Сообщение

user ®

Стаж: 7 лет 7 месяцев

Сообщений: 20008

Пост Пост: #1 от 01-Авг-2013 09:36

[Цитировать]

Рассказы
Жанр: Драма, Комедия
Год выпуска: 2012
Продолжительность: 01:50:17
Режиссёр: Михаил Сегал
В ролях: Андрей Мерзликин, Игорь Угольников, Тамара Миронова, Константин Юшкевич, Дарья Носик, Любовь Новикова, Владислав Лешкевич, Сергей Фетисов, Елена Нестерова, Василий Мичков
Описание: Рукопись молодого писателя попадает в литературное издательство и начинает влиять на жизнь любого, кто откроет её и прочтет хотя бы страницу. Четыре рассказа из рукописи — это четыре истории с непредсказуемой развязкой.
Сэмпл: http://multi-up.com/843810
Качество видео: BDRip-AVC
Формат видео: MKV
Видео: MPEG4 Video (H264), 1024x576, 2387 Kbps
Аудио: AC3, 2.0, 448 Кбит/сек
Rip by: Poseydonbond

MediaInfo

General
Unique ID : 185477136417654447691401166207805045587 (0x8B8998DBB738E215834030E222683B53)
Complete name : H:\FILMS\Rasskazy.2012.RUS.BDRip.H.264.AC3.Poseydonbond.mkv
Format : Matroska
Format version : Version 2
File size : 2.18 GiB
Duration : 1h 50mn
Overall bit rate mode : Variable
Overall bit rate : 2 836 Kbps
Movie name : Rip by Poseydonbond
Encoded date : UTC 2013-03-17 08:00:56
Writing application : mkvmerge v5.8.0 ('No Sleep / Pillow') built on Sep 2 2012 15:37:04
Writing library : libebml v1.2.3 + libmatroska v1.3.0
Video
ID : 1
Format : AVC
Format/Info : Advanced Video Codec
Format profile : High@L4.1
Format settings, CABAC : Yes
Format settings, ReFrames : 3 frames
Format settings, GOP : M=4, N=23
Muxing mode : Header stripping
Codec ID : V_MPEG4/ISO/AVC
Duration : 1h 50mn
Bit rate mode : Variable
Bit rate : 2 387 Kbps
Maximum bit rate : 40.0 Mbps
Width : 1 024 pixels
Height : 576 pixels
Display aspect ratio : 16:9
Frame rate mode : Constant
Frame rate : 24.000 fps
Color space : YUV
Chroma subsampling : 4:2:0
Bit depth : 8 bits
Scan type : Progressive
Bits/(Pixel*Frame) : 0.169
Stream size : 1.80 GiB (82%)
Title : Rasskazy.2012.RUS.BDRip.H.264.AC3.Poseydonbond
Writing library : x264 core 129 r2245 bc13772
Encoding settings : cabac=1 / ref=4 / deblock=1:-3:-3 / analyse=0x3:0x133 / me=umh / subme=10 / psy=1 / psy_rd=1.00:0.00 / mixed_ref=1 / me_range=16 / chroma_me=1 / trellis=2 / 8x8dct=1 / cqm=0 / deadzone=21,11 / fast_pskip=1 / chroma_qp_offset=-2 / threads=3 / lookahead_threads=1 / sliced_threads=0 / slices=4 / nr=0 / decimate=1 / interlaced=0 / bluray_compat=0 / constrained_intra=0 / bframes=3 / b_pyramid=1 / b_adapt=2 / b_bias=0 / direct=3 / weightb=1 / open_gop=0 / weightp=2 / keyint=23 / keyint_min=1 / scenecut=40 / intra_refresh=0 / rc_lookahead=23 / rc=2pass / mbtree=1 / bitrate=2387 / ratetol=1.0 / qcomp=0.60 / qpmin=10 / qpmax=51 / qpstep=4 / cplxblur=20.0 / qblur=0.5 / vbv_maxrate=40000 / vbv_bufsize=30000 / nal_hrd=vbr / ip_ratio=1.40 / aq=1:1.00
Language : English
Default : Yes
Forced : No
Audio
ID : 2
Format : AC-3
Format/Info : Audio Coding 3
Mode extension : CM (complete main)
Format settings, Endianness : Big
Muxing mode : Header stripping
Codec ID : A_AC3
Duration : 1h 50mn
Bit rate mode : Constant
Bit rate : 448 Kbps
Channel(s) : 2 channels
Channel positions : Front: L R
Sampling rate : 48.0 KHz
Bit depth : 16 bits
Compression mode : Lossy
Stream size : 353 MiB (16%)
Title : AC3 DD 2/0 ORG
Language : Russian
Default : Yes
Forced : No
Menu
00:00:00.000 : en:Chapter 01
00:09:34.166 : en:Chapter 02
00:22:31.166 : en:Chapter 03
00:32:15.791 : en:Chapter 04
00:46:23.000 : en:Chapter 05
00:59:25.958 : en:Chapter 06
01:17:34.416 : en:Chapter 07
01:32:22.250 : en:Chapter 08

Скриншот c названием фильма

Скриншоты

Скачать

Скачать торрент!

Как скачивать? · Что такое торрент? · Рейтинг и ограничения

Сайт не распространяет и не хранит электронные версии произведений, а лишь предоставляет доступ к создаваемому пользователями каталогу ссылок на торрент-файлы, которые содержат только списки хеш-сумм

[Профиль] [ЛС]
Показать сообщения:    
Ответить на тему

Текущее время: Сегодня 16:16

Часовой пояс: GMT + 4



Вы не можете начинать темы
Вы не можете отвечать на сообщения
Вы не можете редактировать свои сообщения
Вы не можете удалять свои сообщения
Вы не можете голосовать в опросах
Вы не можете прикреплять файлы к сообщениям
Вы не можете скачивать файлы