Серебристый звон ручья (Игорь Кечаев) [2013, Мелодрама, HDTVRip]

Ответить на тему
 
Автор Сообщение

user ®

Стаж: 7 лет 7 месяцев

Сообщений: 20008

Пост Пост: #1 от 01-Авг-2013 09:36

[Цитировать]

Серебристый звон ручья
Год выпуска: 2013
Производство: Россия, "ВайТ Медиа"
Жанр: Мелодрама
Продолжительность: 01:30:00
Режиссёр: Игорь Кечаев
В ролях: Татьяна Полосина, Ада Роговцева, Илья Ильин, Александр Пашков
Описание: Главная героиня Леся – сирота, живет в глухой деревушке на берегу ручья у своей старенькой бабушки Шуры, которую местные жители считают колдуньей. Но на самом деле Шура потомственная знахарка, обладающая даром лечить людей. Леся с детства помогает бабке собирать травы для целебных отваров, и сама лечит разнообразную живность, которую ей приводят односельчане. Однажды в их деревню приезжает Петр – восстанавливать дом своих бабушки и дедушки и местную разрушенную церковь. Девушка случайно встречает Петра в лесу у ручья и между ними сразу возникает взаимная симпатия. Но Лесе давно не дает проходу Василий - фермер из соседней деревни. Он настроен решительно, и готов на всё, чтобы отвадить от Леси любого ухажера.
Сэмпл
Качество: HDTVRip
Формат: AVI
Видео кодек: XviD
Аудио кодек: АС3
Видео: 720x400 (1.80:1), 25 fps, XviD build 50 ~1965 kbps avg, 0.27 bit/pixel
Аудио: 48 kHz, AC3 Dolby Digital, 2/0 (L,R) ch, ~192.00 kbps avg
Релиз от:

MI

General
Complete name : V:\ftp4\Videos\Serebristyy.zvon.ruchya.2013.XviD.HDTVRip.Files-x.avi
Format : AVI
Format/Info : Audio Video Interleave
File size : 1.37 GiB
Duration : 1h 30mn
Overall bit rate : 2 167 Kbps
Writing application : VirtualDubMod 1.5.10.3 | www.virtualdub-fr.org || (build 2550/release)
Writing library : VirtualDubMod build 2550/release
Video
ID : 0
Format : MPEG-4 Visual
Format profile : Advanced Simple@L5
Format settings, BVOP : 1
Format settings, QPel : No
Format settings, GMC : No warppoints
Format settings, Matrix : Default (H.263)
Codec ID : XVID
Codec ID/Hint : XviD
Duration : 1h 30mn
Bit rate : 1 965 Kbps
Width : 720 pixels
Height : 400 pixels
Display aspect ratio : 16:9
Frame rate : 25.000 fps
Color space : YUV
Chroma subsampling : 4:2:0
Bit depth : 8 bits
Scan type : Progressive
Compression mode : Lossy
Bits/(Pixel*Frame) : 0.273
Stream size : 1.24 GiB (91%)
Writing library : XviD 1.2.1 (UTC 2008-12-04)
Audio
ID : 1
Format : AC-3
Format/Info : Audio Coding 3
Mode extension : CM (complete main)
Format settings, Endianness : Big
Codec ID : 2000
Duration : 1h 30mn
Bit rate mode : Constant
Bit rate : 192 Kbps
Channel(s) : 2 channels
Channel positions : Front: L R
Sampling rate : 48.0 KHz
Bit depth : 16 bits
Compression mode : Lossy
Stream size : 124 MiB (9%)
Alignment : Split accross interleaves
Interleave, duration : 40 ms (1.00 video frame)
Interleave, preload duration : 500 ms

Скриншот c названием фильма

Скриншоты

Скачать

Скачать торрент!

Как скачивать? · Что такое торрент? · Рейтинг и ограничения

Сайт не распространяет и не хранит электронные версии произведений, а лишь предоставляет доступ к создаваемому пользователями каталогу ссылок на торрент-файлы, которые содержат только списки хеш-сумм

[Профиль] [ЛС]
Показать сообщения:    
Ответить на тему

Текущее время: Сегодня 12:14

Часовой пояс: GMT + 4



Вы не можете начинать темы
Вы не можете отвечать на сообщения
Вы не можете редактировать свои сообщения
Вы не можете удалять свои сообщения
Вы не можете голосовать в опросах
Вы не можете прикреплять файлы к сообщениям
Вы не можете скачивать файлы