Рассказы (Михаил Сегал) [2012, драма, комедия, BDRip-AVC]

Ответить на тему
 
Автор Сообщение

user ®

Стаж: 7 лет 7 месяцев

Сообщений: 20008

Пост Пост: #1 от 01-Авг-2013 09:35

[Цитировать]

Рассказы Год выпуска: 2012
Страна: Россия
Жанр: драма, комедия
Продолжительность: 01:50:17-Режиссер: Михаил Сегал-В ролях:
Андрей Мерзликин, Константин Юшкевич, Игорь Угольников, Тамара Миронова, Дарья Носик, Любовь Новикова, Владислав Лешкевич, Сергей Фетисов, Елена Нестерова, Василий Мичков, Андрей Петров, Павел Ремнёв, Дмитрий Хопёрский-Описание:
Рукопись молодого писателя попадает в литературное издательство и начинает влиять на жизнь любого, кто откроет её и прочтет хотя бы страницу. Четыре рассказа из рукописи — это четыре истории с непредсказуемой развязкой.
«Рассказы» вышли из рассказа, из короткометражки «Мир крепежа», которая в прошлом году стала лучшим коротким метром кинофестиваля «Кинотавр» (и лучшим российским фильмом видеофестиваля в Канске) - в свете чего было принято решение развернуть эту историю в полнометражный фильм из нескольких новелл. Новелл очень разных – две откровенно комические, но с заметным привкусом абсурда, одна прямолинейно-сатирическая, третья – многозначительно-метафорическая и с ощутимым налетом мистики. Но всех их объединяет одно – это безошибочно узнаваемое, стопроцентно русское кино. Про всё то, в чём мы все с вами сегодня живём. (Сергей Мезенов)--IMDB: 7.3/10 (98 votes)
Кинопоиск: 7.443 (2212)--Сэмпл--Качество видео: [url=http://***/forum/viewtopic.php?t=4382479]BDRip-AVC[/url]
Формат: MKV
Видео кодек: H.264
Аудио кодек: AC3
Видео: 1024 x 576 (1.85 :1), 24.000 fps, 1697 Кбит/сек, 0.12 bit/pixel
Аудио:48 kHz, AC3 Dolby Digital, 2/0 (L,R) ch, ~192 kbps

Скриншоты



Сравнения

с [url=http://***/forum/viewtopic.php?t=4383923]BDRip-ASP[/url] http://screenshotcomparison.com/comparison/14382

MediaInfo | x264

x264

x264 [info]: frame I:1228 Avg QP:16.41 size: 65428
x264 [info]: frame P:32194 Avg QP:19.52 size: 18180
x264 [info]: frame B:125386 Avg QP:21.11 size: 5884
x264 [info]: consecutive B-frames: 1.5% 1.2% 5.5% 19.3% 16.7% 47.1% 4.0% 0.3% 3.4%
x264 [info]: mb I I16..4: 7.3% 73.0% 19.7%
x264 [info]: mb P I16..4: 1.5% 7.0% 1.2% P16..4: 35.8% 35.1% 9.8% 0.0% 0.0% skip: 9.7%
x264 [info]: mb B I16..4: 0.2% 0.7% 0.1% B16..8: 31.1% 15.5% 2.0% direct: 3.9% skip:46.5% L0:42.7% L1:44.9% BI:12.3%
x264 [info]: 8x8 transform intra:71.3% inter:64.3%
x264 [info]: direct mvs spatial:98.1% temporal:1.9%
x264 [info]: coded y,uvDC,uvAC intra: 72.6% 69.8% 43.3% inter: 14.4% 14.4% 2.2%
x264 [info]: i16 v,h,dc,p: 25% 16% 6% 53%
x264 [info]: i8 v,h,dc,ddl,ddr,vr,hd,vl,hu: 11% 8% 6% 9% 13% 14% 13% 13% 13%
x264 [info]: i4 v,h,dc,ddl,ddr,vr,hd,vl,hu: 15% 10% 6% 8% 14% 14% 12% 11% 11%
x264 [info]: i8c dc,h,v,p: 35% 29% 20% 16%
x264 [info]: Weighted P-Frames: Y:5.1% UV:2.5%
x264 [info]: ref P L0: 49.0% 10.4% 16.5% 7.2% 5.5% 4.2% 3.5% 2.0% 1.5% 0.1% 0.0%
x264 [info]: ref B L0: 71.9% 13.8% 6.3% 3.1% 2.2% 1.6% 0.9% 0.3%
x264 [info]: ref B L1: 92.1% 7.9%
General
Unique ID : 252229755322124858512141458231222740988 (0xBDC1AF11B69F886094019D407ED627FC)
Complete name : D:\Rasskazi.2012.BDRip-AVC.mkv
Format : Matroska
Format version : Version 2
File size : 1.46 GiB
Duration : 1h 50mn
Overall bit rate mode : Variable
Overall bit rate : 1 893 Kbps
Encoded date : UTC 2013-03-20 17:49:15
Writing application : mkvmerge v5.8.0 ('No Sleep / Pillow') built on Sep 2 2012 15:37:04
Writing library : libebml v1.2.3 + libmatroska v1.3.0
Video
ID : 1
Format : AVC
Format/Info : Advanced Video Codec
Format profile : High@L4.1
Format settings, CABAC : Yes
Format settings, ReFrames : 9 frames
Codec ID : V_MPEG4/ISO/AVC
Duration : 1h 50mn
Bit rate mode : Variable
Bit rate : 1 697 Kbps
Maximum bit rate : 40.0 Mbps
Width : 1 024 pixels
Height : 576 pixels
Display aspect ratio : 16:9
Frame rate : 24.000 fps
Color space : YUV
Chroma subsampling : 4:2:0
Bit depth : 8 bits
Scan type : Progressive
Bits/(Pixel*Frame) : 0.120
Stream size : 1.28 GiB (88%)
Writing library : x264 core 129 r2245 bc13772
Encoding settings : cabac=1 / ref=9 / deblock=1:-2:-1 / analyse=0x3:0x113 / me=umh / subme=11 / psy=1 / psy_rd=0.95:0.03 / mixed_ref=1 / me_range=48 / chroma_me=1 / trellis=2 / 8x8dct=1 / cqm=0 / deadzone=21,11 / fast_pskip=0 / chroma_qp_offset=-3 / threads=6 / lookahead_threads=1 / sliced_threads=0 / nr=0 / decimate=1 / interlaced=0 / bluray_compat=0 / constrained_intra=0 / bframes=8 / b_pyramid=2 / b_adapt=2 / b_bias=0 / direct=3 / weightb=1 / open_gop=0 / weightp=2 / keyint=240 / keyint_min=24 / scenecut=40 / intra_refresh=0 / rc=2pass / mbtree=0 / bitrate=1697 / ratetol=1.0 / qcomp=0.70 / qpmin=0 / qpmax=69 / qpstep=4 / cplxblur=20.0 / qblur=0.5 / ip_ratio=1.40 / pb_ratio=1.20 / aq=2:0.7
Default : Yes
Forced : No
Audio
ID : 2
Format : AC-3
Format/Info : Audio Coding 3
Mode extension : CM (complete main)
Codec ID : A_AC3
Duration : 1h 50mn
Bit rate mode : Constant
Bit rate : 192 Kbps
Channel(s) : 2 channels
Channel positions : Front: L R
Sampling rate : 48.0 KHz
Bit depth : 16 bits
Compression mode : Lossy
Stream size : 151 MiB (10%)
Default : Yes
Forced : No
Menu
00:00:00.000 : en:Chapter 00
00:09:34.166 : en:Chapter 01
00:22:31.166 : en:Chapter 02
00:32:15.791 : en:Chapter 03
00:46:23.000 : en:Chapter 04
00:59:25.958 : en:Chapter 05
01:17:34.416 : en:Chapter 06
01:32:22.250 : en:Chapter 07

FAQ по просмотру MKV/h.264/AAC

  • [url=http://***/forum/viewtopic.php?p=9255801#1]Смогу ли я запустить AVC фильм на своём компьютере?[/url]
  • [url=http://***/forum/viewtopic.php?p=9255801#2]Сампл из раздачи не воспроизводится/тормозит или отсутствует звук/изображение. Что делать?[/url]
  • [url=http://***/forum/viewtopic.php?p=9255801#3]Что такое H.264/AVC и зачем он нужен?[/url]
  • [url=http://***/forum/viewtopic.php?p=9255801#4]Что за дурацкий формат .MKV?[/url]
  • [url=http://***/forum/viewtopic.php?p=9255801#5]Почему MKV? Чем AVI хуже?[/url]
  • [url=http://***/forum/viewtopic.php?p=9255801#6]Не могу переключить/включить/выключить аудио/видео дорожки и/или субтитры. Что делать?[/url]
  • [url=http://***/forum/viewtopic.php?p=9255801#14]Как сделать так, чтобы по умолчанию при просмотре MKV файлов нужные/ненужные субтитры были включены/выключены, и/или сразу проигрывалась дорожка на нужном мне языке?[/url]
  • [url=http://***/forum/viewtopic.php?p=9255801#7]Будут ли фильмы в таком формате проигрываться на бытовых плеерах без компьютера?[/url]
  • [url=http://***/forum/viewtopic.php?p=9255801#8]Проигрываю фильм, а картинка очень сильно отличается от скринов/бледная/перенасыщенная. Что не так?[/url]
  • [url=http://***/forum/viewtopic.php?p=9255801#9]Можно ли сконвертировать AVC в DVD?[/url]
  • [url=http://***/forum/viewtopic.php?p=9255801#10]Почему сплюснута картинка / в характеристиках видео указано два разрешения / что такое анаморфное разрешение?[/url]
  • [url=http://***/forum/viewtopic.php?p=9255801#169]Зачем релизёры обманывают качающих и пишут в заголовке 720p/1080p, а на самом деле раздают видеоматериалы в непонятных разрешениях?[/url]
  • [url=http://***/forum/viewtopic.php?p=9255801#11]Можно ли вывести многоканальный FLAC/AAC-звук на внешний ресивер?[/url]
  • [url=http://***/forum/viewtopic.php?p=9255801#12]У меня 2-канальная акустика/стереонаушники. При просмотре видео почти не слышно/совсем не слышно речь/разговоры, играют только фоновые звуки. Что делать?[/url]
  • [url=http://***/forum/viewtopic.php?p=9255801#coreweightp]У меня стоит CoreAVC версии 1.9.5 или младше. При воспроизведении картинка рассыпается на квадраты и разноцветные пятна. Кривой рип?[/url]
  • [url=http://***/forum/viewtopic.php?p=9255801#13]Всё прочитал(-а), решения своей проблемы не нашёл(-шла)/не смог(-ла) разобраться. Что делать?[/url]
Скачать

Скачать торрент!

Как скачивать? · Что такое торрент? · Рейтинг и ограничения

Сайт не распространяет и не хранит электронные версии произведений, а лишь предоставляет доступ к создаваемому пользователями каталогу ссылок на торрент-файлы, которые содержат только списки хеш-сумм

[Профиль] [ЛС]
Показать сообщения:    
Ответить на тему

Текущее время: Сегодня 13:41

Часовой пояс: GMT + 4



Вы не можете начинать темы
Вы не можете отвечать на сообщения
Вы не можете редактировать свои сообщения
Вы не можете удалять свои сообщения
Вы не можете голосовать в опросах
Вы не можете прикреплять файлы к сообщениям
Вы не можете скачивать файлы