Средний род, единственное число (Андрей Щербинин) [2013, Мелодрама, SATRip]

Ответить на тему
 
Автор Сообщение

user ®

Стаж: 7 лет 7 месяцев

Сообщений: 20008

Пост Пост: #1 от 01-Авг-2013 09:35

[Цитировать]

Средний род, единственное число
Жанр: Мелодрама
Год выпуска: 2013
Продолжительность: 01:29:11
Режиссёр: Андрей Щербинин
В ролях: Алексей Зубков, Екатерина Рябова, Елена Купрашевич, Ян Цапник, Алексей Морозов, Михаил Трясоруков, Лариса Леонова, Алексей Фокин, Дмитрий Быковский
Описание: Бизнесмен Брагин тяжело переживает измену жены, в результате — развод и тяжёлый запой. Дела в фирме на грани развала. Врач советует другу Брагина «выбить клин клином» и у бизнесмена появляется референт, амбициозная красавица Лора. Брагин увлекается ею. Но поездка на стройку нового завода и встреча со скромной учительницей Сашей меняют жизнь Брагина…

Качество видео: SATRip
Формат видео: AVI
Видео: DivX 5 720x400 (16:9) 25.0fps Bit rate 992Kbps Bits/Pixel 0.138
Аудио: MP3 48.0 KHz 2ch. 160kbps

MediaInfo

General
Complete name : F:\torrent\Средний род, единственное число.avi
Format : AVI
Format/Info : Audio Video Interleave
File size : 741 MiB
Duration : 1h 29mn
Overall bit rate : 1 162 Kbps
Writing library : VirtualDub build 32842/release
Video
ID : 0
Format : MPEG-4 Visual
Format settings, BVOP : Yes
Format settings, QPel : No
Format settings, GMC : No warppoints
Format settings, Matrix : Default (H.263)
Muxing mode : Packed bitstream
Codec ID : DX50
Codec ID/Hint : DivX 5
Duration : 1h 29mn
Bit rate : 992 Kbps
Width : 720 pixels
Height : 400 pixels
Display aspect ratio : 16:9
Frame rate : 25.000 fps
Color space : YUV
Chroma subsampling : 4:2:0
Bit depth : 8 bits
Scan type : Progressive
Bits/(Pixel*Frame) : 0.138
Stream size : 633 MiB (85%)
Writing library : DivX 6.8.5 (UTC 2009-08-20)
Audio
ID : 1
Format : MPEG Audio
Format version : Version 1
Format profile : Layer 3
Mode : Joint stereo
Codec ID : 55
Codec ID/Hint : MP3
Duration : 1h 29mn
Bit rate mode : Constant
Bit rate : 160 Kbps
Channel(s) : 2 channels
Sampling rate : 48.0 KHz
Stream size : 102 MiB (14%)
Alignment : Split accross interleaves
Interleave, duration : 40 ms (1.00 video frame)
Interleave, preload duration : 500 ms

Скриншот c названием фильма

Скриншоты

Скачать

Скачать торрент!

Как скачивать? · Что такое торрент? · Рейтинг и ограничения

Сайт не распространяет и не хранит электронные версии произведений, а лишь предоставляет доступ к создаваемому пользователями каталогу ссылок на торрент-файлы, которые содержат только списки хеш-сумм

[Профиль] [ЛС]
Показать сообщения:    
Ответить на тему

Текущее время: Сегодня 22:33

Часовой пояс: GMT + 4



Вы не можете начинать темы
Вы не можете отвечать на сообщения
Вы не можете редактировать свои сообщения
Вы не можете удалять свои сообщения
Вы не можете голосовать в опросах
Вы не можете прикреплять файлы к сообщениям
Вы не можете скачивать файлы