Перекрёсток (Дмитрий Астрахан) [1998, мелодрама, музыкальный, DVDRip]

Ответить на тему
 
Автор Сообщение

user ®

Стаж: 7 лет 7 месяцев

Сообщений: 20008

Пост Пост: #1 от 01-Авг-2013 09:35

[Цитировать]

Перекрёсток
Жанр: мелодрама, музыкальный
Год выпуска: 1998
Продолжительность: 01:44:11
Режиссёр: Дмитрий Астрахан
В ролях: Леонид Ярмольник, Анна Легчилова, Александр Ефремов, Ольга Самошина, Ольга Беляева, Геннадий Свирь, Александр Коваленко, Леонид Клунный, Жан Климович, Людмила Былинская, Виктор Ковальчук, Женя Альшиц, Олег Корчиков, Людмила Мацкевич, Валентина Белько, Ирина Жангарова, Людмила Жданович, Алексей Колокольцев, Виктория Ершова, Александр Кашперов, Алексей Турович
Описание:
Он никогда не верил в любовь с первого взгляда. Она никогда не знакомилась с мужчинами на улице. Случайно встретились, понравились друг другу - с кем не бывает. Но чтобы сразу - и под венец? Думаете, сказка? Ничего подобного. Нормальное стечение жизненных обстоятельств - ему надо лететь в Америку, ей предлагают престижную работу. А без штампа в паспорте ни визы, ни хорошего места не получить...
Доп. информация:
Композиторы: Андрей Макаревич, Алексей Григорьев
релиз -
Сэмпл: http://multi-up.com/846080
Качество видео: DVDRip
Формат видео: AVI
Видео: 704x432 (1.63:1), 25 fps, XviD build 65 ~1789 kbps avg, 0.23 bit/pixel
Аудио: 48 kHz, AC3 Dolby Digital, 2/0 (L,R) ch, ~192 kbps

MediaInfo

Перекрёсток.DVDRip-SVAT.avi
Format : AVI
Format/Info : Audio Video Interleave
File size : 1.45 GiB
Duration : 1h 44mn
Overall bit rate : 1 992 Kbps
Writing application : VirtualDubMod 1.5.10.3 | www.virtualdub-fr.org || (build 2550/release)
Writing library : VirtualDubMod build 2550/release
Video
ID : 0
Format : MPEG-4 Visual
Format profile : Advanced Simple@L5
Format settings, BVOP : 2
Format settings, QPel : No
Format settings, GMC : No warppoints
Format settings, Matrix : Custom
Codec ID : XVID
Codec ID/Hint : XviD
Duration : 1h 44mn
Bit rate : 1 790 Kbps
Width : 704 pixels
Height : 432 pixels
Display aspect ratio : 1.630
Frame rate : 25.000 fps
Color space : YUV
Chroma subsampling : 4:2:0
Bit depth : 8 bits
Scan type : Progressive
Compression mode : Lossy
Bits/(Pixel*Frame) : 0.235
Stream size : 1.30 GiB (90%)
Writing library : XviD 65
Audio
ID : 1
Format : AC-3
Format/Info : Audio Coding 3
Mode extension : CM (complete main)
Format settings, Endianness : Big
Codec ID : 2000
Duration : 1h 44mn
Bit rate mode : Constant
Bit rate : 192 Kbps
Channel(s) : 2 channels
Channel positions : Front: L R
Sampling rate : 48.0 KHz
Bit depth : 16 bits
Compression mode : Lossy
Stream size : 143 MiB (10%)
Alignment : Split accross interleaves
Interleave, duration : 40 ms (1.00 video frame)
Interleave, preload duration : 500 ms

Скриншот c названием фильма

Скриншоты

Скачать

Скачать торрент!

Как скачивать? · Что такое торрент? · Рейтинг и ограничения

Сайт не распространяет и не хранит электронные версии произведений, а лишь предоставляет доступ к создаваемому пользователями каталогу ссылок на торрент-файлы, которые содержат только списки хеш-сумм

[Профиль] [ЛС]
Показать сообщения:    
Ответить на тему

Текущее время: Сегодня 15:55

Часовой пояс: GMT + 4



Вы не можете начинать темы
Вы не можете отвечать на сообщения
Вы не можете редактировать свои сообщения
Вы не можете удалять свои сообщения
Вы не можете голосовать в опросах
Вы не можете прикреплять файлы к сообщениям
Вы не можете скачивать файлы