Новогодняя жена (Светлана Музыченко) [2012, комедия, HDTVRip-AVC]

Ответить на тему
 
Автор Сообщение

user ®

Стаж: 7 лет 7 месяцев

Сообщений: 20008

Пост Пост: #1 от 01-Авг-2013 09:35

[Цитировать]

Новогодняя жена
Жанр: комедия
Год выпуска: 2012
Продолжительность: 01:32:58
Режиссёр: Светлана Музыченко
В ролях: Карина Андоленко, Сергей Перегудов, Алёна Яковлева, Александр Арсентьев, Антон Васильев, Светлана Колпакова, Алексей Гришин, Анна Донченко, Даниил Эйдлин, Елена Ефимова, Юлия Крайнова, Юлия Сулес, Анастасия Смертина, Владимир Ширяев
Описание: В самый разгар вечеринки в клубе Даша и Максим встречают друг друга - и просыпаются в одной постели. Решив, что их свела сама судьба, герои принимаются строить идеальные, «правильные» отношения - и подают заявление в ЗАГС, предварительно заключив пари: если в течение месяца им удастся не просто прожить вместе, но и сохранить чувство влюбленности, дело закончится свадьбой. Максим с Дашей изо всех сил пытаются стать настоящей парой, хотя жизнь постоянно проверяет их отношения на прочность...
Доп. информация:

Раздача группы:
Отдельное спасибо mydimka за предоставление исходника.

Качество видео: HDTVRip-AVC by Серый1779
Формат видео: MKV
Видео: AVC H264, 1280x720 (16:9), 25 fps, 4172 kbps
Аудио: MPEG Audio, 2 ch, 192 Кбит/с, 48,0 КГц

MI

Уникальный идентификатор : 183305815293204217365942311999313210412 (0x89E76A7626CCD012988839D245DAEC2C)
Полное имя : E:\Downloads\55\Новогодняя жена_HDTVRip_720p_by_Серый1779.mkv
Формат : Matroska
Размер файла : 2,83 Гбайт
Продолжительность : 1 ч. 32 м.
Общий поток : 4365 Кбит/сек
Дата кодирования : UTC 2013-03-23 06:09:59
Программа кодирования : mkvmerge v5.6.0 ('Kenya Kane') built on Jun 29 2012 15:01:44
Библиотека кодирования : libebml v1.2.3 + libmatroska v1.3.0
Видео
Идентификатор : 1
Формат : AVC
Формат/Информация : Advanced Video Codec
Профиль формата : High@L4.1
Параметр CABAC формата : Да
Параметр ReFrames формата : 9 кадров
Параметры GOP формата : M=10, N=52
Идентификатор кодека : V_MPEG4/ISO/AVC
Продолжительность : 1 ч. 32 м.
Битрейт : 4172 Кбит/сек
Ширина : 1280 пикс.
Высота : 720 пикс.
Соотношение сторон : 16:9
Частота кадров : 25,000 кадр/сек
Цветовое пространство : YUV
Подвыборка цветности : 4:2:0
Битовая глубина : 8 бит
Тип развёртки : Прогрессивная
Бит/(Пиксели*Кадры) : 0.181
Размер потока : 2,65 Гбайт (94%)
Библиотека кодирования : x264 core 125 r2200 999b753
Настройки программы : cabac=1 / ref=9 / deblock=1:-2:-2 / analyse=0x3:0x133 / me=umh / subme=9 / psy=1 / psy_rd=1.10:0.15 / mixed_ref=1 / me_range=32 / chroma_me=1 / trellis=2 / 8x8dct=1 / cqm=0 / deadzone=21,11 / fast_pskip=0 / chroma_qp_offset=-3 / threads=3 / lookahead_threads=1 / sliced_threads=0 / nr=0 / decimate=1 / interlaced=0 / bluray_compat=0 / constrained_intra=0 / bframes=9 / b_pyramid=2 / b_adapt=2 / b_bias=0 / direct=3 / weightb=1 / open_gop=0 / weightp=2 / keyint=250 / keyint_min=25 / scenecut=40 / intra_refresh=0 / rc=2pass / mbtree=0 / bitrate=4172 / ratetol=1.0 / qcomp=0.60 / qpmin=0 / qpmax=69 / qpstep=4 / cplxblur=20.0 / qblur=0.5 / ip_ratio=1.40 / pb_ratio=1.30 / aq=2:0.80
Основные цвета : BT.470-6 System B, BT.470-6 System G, BT.601-6 625, BT.1358 625, BT.1700 625 PAL, BT.1700 625 SECAM
Характеристики трансфера : BT.470-6 System B, BT.470-6 System G
Коэффициенты матрицы : BT.470-6 System B, BT.470-6 System G, BT.601-6 625, BT.1358 625, BT.1700 625 PAL, BT.1700 625 SECAM, IEC 61966-2-4 601
Аудио
Идентификатор : 2
Формат : MPEG Audio
Версия формата : Version 1
Профиль формата : Layer 2
Идентификатор кодека : A_MPEG/L2
Идентификатор кодека/Подсказка : MP2
Продолжительность : 1 ч. 32 м.
Вид битрейта : Постоянный
Битрейт : 192 Кбит/сек
Каналы : 2 канала
Частота : 48,0 КГц
Метод сжатия : С потерями
Размер потока : 128 Мбайт (4%)

h264 log

x264 [info]: frame I:1071 Avg QP:13.05 size: 99936
x264 [info]: frame P:36559 Avg QP:15.37 size: 40635
x264 [info]: frame B:101841 Avg QP:17.33 size: 12924
x264 [info]: consecutive B-frames: 2.0% 3.6% 8.0% 71.8% 6.7% 6.6% 0.3% 0.3% 0.6% 0.1%
x264 [info]: mb I I16..4: 8.2% 71.5% 20.2%
x264 [info]: mb P I16..4: 4.0% 22.0% 2.9% P16..4: 34.9% 21.4% 11.1% 0.8% 0.2% skip: 2.6%
x264 [info]: mb B I16..4: 0.6% 2.1% 0.3% B16..8: 36.4% 11.9% 2.7% direct:10.0% skip:36.1% L0:37.3% L1:43.0% BI:19.7%
x264 [info]: 8x8 transform intra:74.7% inter:47.5%
x264 [info]: direct mvs spatial:99.1% temporal:0.9%
x264 [info]: coded y,uvDC,uvAC intra: 77.0% 85.5% 66.3% inter: 23.5% 30.7% 3.8%
x264 [info]: i16 v,h,dc,p: 33% 15% 7% 45%
x264 [info]: i8 v,h,dc,ddl,ddr,vr,hd,vl,hu: 20% 15% 11% 6% 8% 10% 9% 10% 10%
x264 [info]: i4 v,h,dc,ddl,ddr,vr,hd,vl,hu: 19% 13% 6% 7% 13% 13% 11% 9% 9%
x264 [info]: i8c dc,h,v,p: 34% 26% 26% 14%
x264 [info]: Weighted P-Frames: Y:3.6% UV:2.1%
x264 [info]: ref P L0: 50.9% 8.8% 20.3% 5.5% 4.8% 3.0% 3.0% 1.7% 1.9% 0.1% 0.0%
x264 [info]: ref B L0: 84.4% 9.2% 2.7% 1.4% 0.9% 0.7% 0.5% 0.3%
x264 [info]: ref B L1: 97.0% 3.0%
x264 [info]: kb/s:4171.20
x264 [total]: encoded 139471 frames, 2.36 fps, 4171.20 kb/s

Скриншот с названием

Скриншоты

Скачать

Скачать торрент!

Как скачивать? · Что такое торрент? · Рейтинг и ограничения

Сайт не распространяет и не хранит электронные версии произведений, а лишь предоставляет доступ к создаваемому пользователями каталогу ссылок на торрент-файлы, которые содержат только списки хеш-сумм

[Профиль] [ЛС]
Показать сообщения:    
Ответить на тему

Текущее время: Сегодня 16:45

Часовой пояс: GMT + 4



Вы не можете начинать темы
Вы не можете отвечать на сообщения
Вы не можете редактировать свои сообщения
Вы не можете удалять свои сообщения
Вы не можете голосовать в опросах
Вы не можете прикреплять файлы к сообщениям
Вы не можете скачивать файлы