Жена Штирлица (Вадим Соколовский) [2012, комедия, HDTVRip-AVC]

Ответить на тему
 
Автор Сообщение

user ®

Стаж: 7 лет 7 месяцев

Сообщений: 20008

Пост Пост: #1 от 01-Авг-2013 09:35

[Цитировать]

Жена Штирлица
Жанр: комедия
Год выпуска: 2012
Продолжительность: 01:30:41
Режиссёр: Вадим Соколовский
В ролях: Анна Горшкова, Павел Делонг (озвучание - Михаил Георгиу), Артем Фадеев, Ксения Князева, Татьяна Лютаева, Марианна Шульц, Константин Карасик, Антонина Козлова, Аля Никулина, Сергей Мезенцев, Александр Колесников, Дима Хопёрский, Татьяна Морозова, Галина Анисимова, Лариса Бедненко, Михаил Ермошин, Дмитрий Куделин, Владислав Дунаев, Максим Куранов, Сергей Краснов, Георгий Громов, Станислав Курач, Анастасия Платонова
Описание: Валентина одна воспитывает маленького сына Вовку. Видя, как мальчик тоскует по отцу, героиня сочиняет историю, что его папа - герой-разведчик, который выполняет секретное задание в Южной Америке и однажды обязательно вернется домой. Каково же было удивление Валентины, когда - на грани разоблачения своей лжи - она встретила мужчину, будто вышедшего из сказки, которую сочинила сама…

Раздача группы:
Отдельное спасибо mydimka за предоставление исходника.

Качество видео: HDTVRip-AVC by Серый1779
Формат видео: MKV
Видео: AVC H264, 1280x720, 25 fps, 4279 kbps
Аудио: MP2, 2 ch, 192 Кбит/с, 48,0 КГц

MI

Уникальный идентификатор : 204784005232338280096070261761482461302 (0x9A0FF6FBE0BC00C3A68530617CF49076)
Полное имя : Жена Штирлица_HDTVRip_720p_by_Серый1779.mkv
Формат : Matroska
Размер файла : 2,83 Гбайт
Продолжительность : 1 ч. 30 м.
Общий поток : 4474 Кбит/сек
Дата кодирования : UTC 2013-03-23 05:19:04
Программа кодирования : mkvmerge v4.9.1 ('Ich will') built on Sep 21 2011 17:48:11
Библиотека кодирования : libebml v1.2.1 + libmatroska v1.2.0
Видео
Идентификатор : 1
Формат : AVC
Формат/Информация : Advanced Video Codec
Профиль формата : High@L4.1
Параметр CABAC формата : Да
Параметр ReFrames формата : 10 кадров
Идентификатор кодека : V_MPEG4/ISO/AVC
Продолжительность : 1 ч. 30 м.
Битрейт : 4282 Кбит/сек
Ширина : 1280 пикс.
Высота : 720 пикс.
Соотношение сторон : 16:9
Частота кадров : 25,000 кадр/сек
Цветовое пространство : YUV
Подвыборка цветности : 4:2:0
Битовая глубина : 8 бит
Тип развёртки : Прогрессивная
Бит/(Пиксели*Кадры) : 0.186
Размер потока : 2,66 Гбайт (94%)
Библиотека кодирования : x264 core 118 r2085 8a62835
Настройки программы : cabac=1 / ref=10 / deblock=1:-3:-3 / analyse=0x3:0x133 / me=umh / subme=9 / psy=1 / psy_rd=1.00:0.15 / mixed_ref=1 / me_range=32 / chroma_me=1 / trellis=2 / 8x8dct=1 / cqm=0 / deadzone=21,11 / fast_pskip=0 / chroma_qp_offset=-3 / threads=3 / sliced_threads=0 / nr=0 / decimate=1 / interlaced=0 / bluray_compat=0 / constrained_intra=0 / bframes=10 / b_pyramid=2 / b_adapt=2 / b_bias=0 / direct=3 / weightb=1 / open_gop=0 / weightp=2 / keyint=250 / keyint_min=25 / scenecut=40 / intra_refresh=0 / rc=2pass / mbtree=0 / bitrate=4282 / ratetol=1.0 / qcomp=0.60 / qpmin=0 / qpmax=69 / qpstep=4 / cplxblur=20.0 / qblur=0.5 / ip_ratio=1.40 / pb_ratio=1.30 / aq=2:0.70
Основные цвета : BT.470-6 System B, BT.470-6 System G, BT.601-6 625, BT.1358 625, BT.1700 625 PAL, BT.1700 625 SECAM
Характеристики трансфера : BT.470-6 System B, BT.470-6 System G
Коэффициенты матрицы : BT.470-6 System B, BT.470-6 System G, BT.601-6 625, BT.1358 625, BT.1700 625 PAL, BT.1700 625 SECAM, IEC 61966-2-4 601
Аудио
Идентификатор : 2
Формат : MPEG Audio
Версия формата : Version 1
Профиль формата : Layer 2
Идентификатор кодека : A_MPEG/L2
Идентификатор кодека/Подсказка : MP2
Продолжительность : 1 ч. 30 м.
Вид битрейта : Постоянный
Битрейт : 192 Кбит/сек
Каналы : 2 канала
Частота : 48,0 КГц
Метод сжатия : С потерями
Размер потока : 125 Мбайт (4%)

h264 log

x264 [info]: frame P:31517 Avg QP:18.39 size: 43536x264 [info]: frame B:103657 Avg QP:20.40 size: 13832x264 [info]: consecutive B-frames: 1.3% 2.0% 5.6% 48.4% 16.3% 23.2% 1.5% 1.6% 0.0% 0.0% 0.0%x264 [info]: mb I I16..4: 8.0% 72.2% 19.8%x264 [info]: mb P I16..4: 1.6% 12.7% 1.3% P16..4: 52.5% 22.9% 5.5% 0.8% 0.2% skip: 2.5%x264 [info]: mb B I16..4: 0.1% 0.9% 0.1% B16..8: 38.5% 8.6% 2.1% direct:10.2% skip:39.4% L0:38.6% L1:44.7% BI:16.7%x264 [info]: 8x8 transform intra:79.7% inter:63.1%x264 [info]: direct mvs spatial:99.0% temporal:1.0%x264 [info]: coded y,uvDC,uvAC intra: 84.1% 81.9% 47.9% inter: 30.0% 30.8% 2.6%x264 [info]: i16 v,h,dc,p: 23% 11% 13% 53%x264 [info]: i8 v,h,dc,ddl,ddr,vr,hd,vl,hu: 14% 9% 7% 8% 12% 13% 12% 12% 13%x264 [info]: i4 v,h,dc,ddl,ddr,vr,hd,vl,hu: 17% 8% 4% 8% 14% 15% 12% 12% 11%x264 [info]: i8c dc,h,v,p: 41% 24% 21% 14%x264 [info]: Weighted P-Frames: Y:1.9% UV:0.8%x264 [info]: ref P L0: 41.3% 10.7% 20.3% 6.4% 6.3% 4.1% 4.1% 2.2% 2.4% 2.2% 0.1% 0.0%x264 [info]: ref B L0: 82.4% 9.5% 3.1% 1.6% 1.1% 0.9% 0.7% 0.4% 0.2%x264 [info]: ref B L1: 96.2% 3.8%x264 [info]: kb/s:4279.94
x264 [total]: encoded 136046 frames, 2.14 fps, 4279.94 kb/s

Скриншот с названием

Скриншоты

Скачать

Скачать торрент!

Как скачивать? · Что такое торрент? · Рейтинг и ограничения

Сайт не распространяет и не хранит электронные версии произведений, а лишь предоставляет доступ к создаваемому пользователями каталогу ссылок на торрент-файлы, которые содержат только списки хеш-сумм

[Профиль] [ЛС]
Показать сообщения:    
Ответить на тему

Текущее время: Сегодня 09:56

Часовой пояс: GMT + 4



Вы не можете начинать темы
Вы не можете отвечать на сообщения
Вы не можете редактировать свои сообщения
Вы не можете удалять свои сообщения
Вы не можете голосовать в опросах
Вы не можете прикреплять файлы к сообщениям
Вы не можете скачивать файлы