Под знаком Скорпиона (Юрий Сорокин) [1995, драма, биографический, DVB]

Ответить на тему
 
Автор Сообщение

user ®

Стаж: 7 лет 7 месяцев

Сообщений: 20008

Пост Пост: #1 от 01-Авг-2013 09:35

[Цитировать]

Под знаком Скорпиона (4 серии)
Жанр: драма, биографический
Год выпуска: 1995
Продолжительность: 01:05:50 + 00:54:05 + 00:53:58 + 00:58:31
Режиссёр: Юрий Сорокин
В ролях: Валерий Порошин, Виктор Степанов, Рим Аюпов, Игорь Кваша, Елена Аминова, Алексей Сафонов, Гоша Куценко, Валерий Смецкой, Владимир Талашко, Геннадий Сайфулин, Ян Янакиев, Никита Джигурда, Ирина Чериченко, Светлана Коркошко, Юрий Сорокин, Шавкат Газиев, Юрий Дедович, Юрий Маляров, Андрей Сухов, Татьяна Чернопятова, Галина Булкина, Валентина Карева, Владимир Ровинский
Описание: Главная тема фильма — душевная драма Максима Горького, вовлеченного в круговорот того рокового времени. Алексей Максимович предстает в образе, совершенно незнакомом для нас, - противоречивом, трагическом. Причина его отъезда за границу, а потом возвращение на родину, последняя роковая любовь, отношения с В.И.Лениным и И.В.Сталиным, обстоятельства смерти писателя.
Доп. информация: Запись потока *.ts со спутника EUTELSAT, ремукс в *.mpg программой VideoReDo.
Качество видео: DVB
Формат видео: MPEG-PS
Видео: MPEG Video, 720x576 (4 : 3), 25,000 кадров/сек, 4806 Кбит/сек
Аудио: MPEG Audio, 48,0 КГц, 192 Кбит/сек, 2 канала

Сравнение

[url=http://***/forum/viewtopic.php?t=1439012]http://***/forum/viewtopic.php?t=1439012[/url]
http://screenshotcomparison.com/comparison/15272/

MediaInfo

Общее
Полное имя : G:\Torrent\ПОД ЗНАКОМ СКОРПИОНА\ПОД ЗНАКОМ СКОРПИОНА 1 (Россия К).mpg
Формат : MPEG-PS
Размер файла : 2,35 Гбайт
Продолжительность : 1 ч. 5 м.
Режим общего битрейта : Переменный
Общий поток : 5099 Кбит/сек
Видео
Идентификатор : 224 (0xE0)
Формат : MPEG Video
Версия формата : Version 2
Профиль формата : Main@Main
Параметр BVOP формата : Да
Параметр матрицы формата : Выборочная
Параметр GOP формата : Variable
Продолжительность : 1 ч. 5 м.
Вид битрейта : Переменный
Битрейт : 4806 Кбит/сек
Максимальный битрейт : 15,0 Мбит/сек
Ширина : 720 пикселей
Высота : 576 пикселей
Соотношение сторон : 4:3
Частота кадров : 25,000 кадров/сек
Стандарт вещания : PAL
Цветовое пространство : YUV
Субдискретизация насыщенности : 4:2:0
Битовая глубина : 8 бит
Тип развёртки : Чересстрочная
Порядок развёртки : Верхнее поле первое
Метод сжатия : С потерями
Бит/(Пиксели*Кадры) : 0.464
Размер потока : 2,21 Гбайт (94%)
Аудио
Идентификатор : 192 (0xC0)
Формат : MPEG Audio
Версия формата : Version 1
Профиль формата : Layer 2
Продолжительность : 1 ч. 5 м.
Вид битрейта : Постоянный
Битрейт : 192 Кбит/сек
Каналы : 2 канала
Частота : 48,0 КГц
Метод сжатия : С потерями
Размер потока : 90,4 Мбайт (4%)
Общее
Полное имя : G:\Torrent\ПОД ЗНАКОМ СКОРПИОНА\ПОД ЗНАКОМ СКОРПИОНА 2 (Россия К).mpg
Формат : MPEG-PS
Размер файла : 1,95 Гбайт
Продолжительность : 54 м.
Режим общего битрейта : Переменный
Общий поток : 5093 Кбит/сек
Видео
Идентификатор : 224 (0xE0)
Формат : MPEG Video
Версия формата : Version 2
Профиль формата : Main@Main
Параметр BVOP формата : Да
Параметр матрицы формата : Выборочная
Параметр GOP формата : Variable
Продолжительность : 54 м.
Вид битрейта : Переменный
Битрейт : 4800 Кбит/сек
Максимальный битрейт : 15,0 Мбит/сек
Ширина : 720 пикселей
Высота : 576 пикселей
Соотношение сторон : 4:3
Частота кадров : 25,000 кадров/сек
Стандарт вещания : PAL
Цветовое пространство : YUV
Субдискретизация насыщенности : 4:2:0
Битовая глубина : 8 бит
Тип развёртки : Чересстрочная
Порядок развёртки : Верхнее поле первое
Метод сжатия : С потерями
Бит/(Пиксели*Кадры) : 0.463
Размер потока : 1,84 Гбайт (94%)
Аудио
Идентификатор : 192 (0xC0)
Формат : MPEG Audio
Версия формата : Version 1
Профиль формата : Layer 2
Продолжительность : 54 м.
Вид битрейта : Постоянный
Битрейт : 192 Кбит/сек
Каналы : 2 канала
Частота : 48,0 КГц
Метод сжатия : С потерями
Размер потока : 75,4 Мбайт (4%)
Общее
Полное имя : G:\Torrent\ПОД ЗНАКОМ СКОРПИОНА\ПОД ЗНАКОМ СКОРПИОНА 3 (Россия К).mpg
Формат : MPEG-PS
Размер файла : 1,91 Гбайт
Продолжительность : 53 м.
Режим общего битрейта : Переменный
Общий поток : 5090 Кбит/сек
Видео
Идентификатор : 224 (0xE0)
Формат : MPEG Video
Версия формата : Version 2
Профиль формата : Main@Main
Параметр BVOP формата : Да
Параметр матрицы формата : Выборочная
Параметр GOP формата : Variable
Продолжительность : 53 м.
Вид битрейта : Переменный
Битрейт : 4797 Кбит/сек
Максимальный битрейт : 15,0 Мбит/сек
Ширина : 720 пикселей
Высота : 576 пикселей
Соотношение сторон : 4:3
Частота кадров : 25,000 кадров/сек
Стандарт вещания : PAL
Цветовое пространство : YUV
Субдискретизация насыщенности : 4:2:0
Битовая глубина : 8 бит
Тип развёртки : Чересстрочная
Порядок развёртки : Верхнее поле первое
Метод сжатия : С потерями
Бит/(Пиксели*Кадры) : 0.463
Размер потока : 1,80 Гбайт (94%)
Аудио
Идентификатор : 192 (0xC0)
Формат : MPEG Audio
Версия формата : Version 1
Профиль формата : Layer 2
Продолжительность : 53 м.
Вид битрейта : Постоянный
Битрейт : 192 Кбит/сек
Каналы : 2 канала
Частота : 48,0 КГц
Метод сжатия : С потерями
Размер потока : 73,7 Мбайт (4%)
Общее
Полное имя : G:\Torrent\ПОД ЗНАКОМ СКОРПИОНА\ПОД ЗНАКОМ СКОРПИОНА 4 (Россия К).mpg
Формат : MPEG-PS
Размер файла : 2,07 Гбайт
Продолжительность : 58 м.
Режим общего битрейта : Переменный
Общий поток : 5064 Кбит/сек
Видео
Идентификатор : 224 (0xE0)
Формат : MPEG Video
Версия формата : Version 2
Профиль формата : Main@Main
Параметр BVOP формата : Да
Параметр матрицы формата : Выборочная
Параметр GOP формата : Variable
Продолжительность : 58 м.
Вид битрейта : Переменный
Битрейт : 4771 Кбит/сек
Максимальный битрейт : 15,0 Мбит/сек
Ширина : 720 пикселей
Высота : 576 пикселей
Соотношение сторон : 4:3
Частота кадров : 25,000 кадров/сек
Стандарт вещания : PAL
Цветовое пространство : YUV
Субдискретизация насыщенности : 4:2:0
Битовая глубина : 8 бит
Тип развёртки : Чересстрочная
Порядок развёртки : Верхнее поле первое
Метод сжатия : С потерями
Бит/(Пиксели*Кадры) : 0.460
Размер потока : 1,95 Гбайт (94%)
Аудио
Идентификатор : 192 (0xC0)
Формат : MPEG Audio
Версия формата : Version 1
Профиль формата : Layer 2
Продолжительность : 58 м.
Вид битрейта : Постоянный
Битрейт : 192 Кбит/сек
Каналы : 2 канала
Частота : 48,0 КГц
Метод сжатия : С потерями
Размер потока : 80,4 Мбайт (4%)

Скриншот c названием фильма

Скриншоты

Скачать

Скачать торрент!

Как скачивать? · Что такое торрент? · Рейтинг и ограничения

Сайт не распространяет и не хранит электронные версии произведений, а лишь предоставляет доступ к создаваемому пользователями каталогу ссылок на торрент-файлы, которые содержат только списки хеш-сумм

[Профиль] [ЛС]
Показать сообщения:    
Ответить на тему

Текущее время: Сегодня 00:38

Часовой пояс: GMT + 4



Вы не можете начинать темы
Вы не можете отвечать на сообщения
Вы не можете редактировать свои сообщения
Вы не можете удалять свои сообщения
Вы не можете голосовать в опросах
Вы не можете прикреплять файлы к сообщениям
Вы не можете скачивать файлы