Букет (Андрей Канивченко) [2013, Мелодрама, HDTVRip]

Ответить на тему
 
Автор Сообщение

user ®

Стаж: 7 лет 7 месяцев

Сообщений: 20008

Пост Пост: #1 от 01-Авг-2013 09:35

[Цитировать]

Букет
Жанр: Мелодрама
Производство: Россия
Год выпуска: 2013
Продолжительность: 01:30:00
Режиссёр: Андрей Канивченко
В ролях: Ольга Котельникова, Елена Дубровская, Анатолий Котенёв, Инна Коляда, Анатолий Руденко
Описание: Каждая девушка хочет услышать предложение руки и сердца от своего любимого, но только не Таня. Ведь только что закончилась школа, зачем так рано становиться взрослыми! А вдруг за поворотом ее ждет огромное счастье? Во всяком случае, мама считает именно так. И когда на горизонте появляется перспективный жених с дипломатическим будущим, Таня делает выбор в его пользу.
Проходят восемнадцать лет Таниной жизни. Дочь Таня воспитывает одна, с работы приходится уйти, и будущее зыбко и туманно. Неизменным в ее жизни остается лишь одно: от Сергея, ее первой любви, на день рождения приходит букет ромашек. Семнадцать лет. Семнадцать букетов. Как важно знать, что кто-то в этом мире так преданно любит тебя!
Новый день рождения не приносит с собой очередного букета. И только теперь Таня понимает, как много значил для нее этот букет на день рожденья. Сможет ли Таня вернуть любовь в свою жизнь?...
Релиз от:
Семпл: http://multi-up.com/849072
Качество видео: HDTVRip
Формат видео: AVI
Видео: 720x400 (1.80:1), 25 fps, XviD build 50 ~1932 kbps avg, 0.27 bit/pixel
Аудио: 48 kHz, AC3 Dolby Digital, 2/0 (L,R) ch, ~192.00 kbps avg

MediaInfo

General
Complete name : V:\ftp4\Videos\Buket.2013.XviD.HDTVRip.Files-x.avi
Format : AVI
Format/Info : Audio Video Interleave
File size : 1.37 GiB
Duration : 1h 31mn
Overall bit rate : 2 135 Kbps
Writing application : VirtualDubMod 1.5.10.3 | www.virtualdub-fr.org || (build 2550/release)
Writing library : VirtualDubMod build 2550/release
Video
ID : 0
Format : MPEG-4 Visual
Format profile : Advanced Simple@L5
Format settings, BVOP : 1
Format settings, QPel : No
Format settings, GMC : No warppoints
Format settings, Matrix : Default (H.263)
Codec ID : XVID
Codec ID/Hint : XviD
Duration : 1h 31mn
Bit rate : 1 933 Kbps
Width : 720 pixels
Height : 400 pixels
Display aspect ratio : 16:9
Frame rate : 25.000 fps
Color space : YUV
Chroma subsampling : 4:2:0
Bit depth : 8 bits
Scan type : Progressive
Compression mode : Lossy
Bits/(Pixel*Frame) : 0.268
Stream size : 1.24 GiB (91%)
Writing library : XviD 1.2.1 (UTC 2008-12-04)
Audio
ID : 1
Format : AC-3
Format/Info : Audio Coding 3
Mode extension : CM (complete main)
Format settings, Endianness : Big
Codec ID : 2000
Duration : 1h 31mn
Bit rate mode : Constant
Bit rate : 192 Kbps
Channel(s) : 2 channels
Channel positions : Front: L R
Sampling rate : 48.0 KHz
Bit depth : 16 bits
Compression mode : Lossy
Stream size : 126 MiB (9%)
Alignment : Split accross interleaves
Interleave, duration : 40 ms (1.00 video frame)
Interleave, preload duration : 500 ms

Скриншот c названием фильма

Скриншоты

Скачать

Скачать торрент!

Как скачивать? · Что такое торрент? · Рейтинг и ограничения

Сайт не распространяет и не хранит электронные версии произведений, а лишь предоставляет доступ к создаваемому пользователями каталогу ссылок на торрент-файлы, которые содержат только списки хеш-сумм

[Профиль] [ЛС]
Показать сообщения:    
Ответить на тему

Текущее время: Сегодня 09:51

Часовой пояс: GMT + 4



Вы не можете начинать темы
Вы не можете отвечать на сообщения
Вы не можете редактировать свои сообщения
Вы не можете удалять свои сообщения
Вы не можете голосовать в опросах
Вы не можете прикреплять файлы к сообщениям
Вы не можете скачивать файлы