Букет (Андрей Канивченко) [2013, Мелодрама, SATRip]

Ответить на тему
 
Автор Сообщение

user ®

Стаж: 7 лет 7 месяцев

Сообщений: 20008

Пост Пост: #1 от 01-Авг-2013 09:35

[Цитировать]

Букет
Жанр: Мелодрама
Год выпуска: 2013
Продолжительность: 01:31:03
Режиссёр: Андрей Канивченко
В ролях: Ольга Котельникова, Елена Дубровская, Анатолий Котенёв, Инна Коляда, Анатолий Руденко
Описание: Каждая девушка хочет услышать предложение руки и сердца от своего любимого, но только не Таня. Ведь только что закончилась школа. Но когда на горизонте появляется перспективный жених с дипломатическим будущим, Таня делает выбор в его пользу. Проходят восемнадцать лет. Дочь, Таня воспитывает одна, с работы приходится уйти, и будущее зыбко и туманно. Неизменным в ее жизни остается лишь одно: от Сергея, ее первой любви, на день рождения приходит букет ромашек. Семнадцать лет. Семнадцать букетов. Как важно знать, что кто-то в этом мире так преданно любит тебя! Новый день рождения не приносит с собой очередного букета. И только теперь Таня понимает, как много значил для нее этот букет на день рожденья.
Сэмпл: http://multi-up.com/848950
Качество видео: SATRip
Формат видео: AVI
Видео: MPEG4, DivX 5, 704x400 (16:9), 25.000 fps, 933 Kbps (0.133 bit/pixel)
Аудио: MPEG Layer 3, 2 ch, ~128.00 kbps

MediaInfo

General
Complete name : D:\Buket 2013 700Mb_SATRip ***.avi
Format : AVI
Format/Info : Audio Video Interleave
File size : 697 MiB
Duration : 1h 31mn
Overall bit rate : 1 071 Kbps
Writing library : VirtualDub-MPEG2 build 24600/release
Video
ID : 0
Format : MPEG-4 Visual
Format settings, BVOP : Yes
Format settings, QPel : No
Format settings, GMC : No warppoints
Format settings, Matrix : Default (H.263)
Codec ID : DX50
Codec ID/Hint : DivX 5
Duration : 1h 31mn
Bit rate : 933 Kbps
Width : 704 pixels
Height : 400 pixels
Display aspect ratio : 16:9
Frame rate : 25.000 fps
Color space : YUV
Chroma subsampling : 4:2:0
Bit depth : 8 bits
Scan type : Progressive
Bits/(Pixel*Frame) : 0.133
Stream size : 608 MiB (87%)
Writing library : Intel(R) MPEG-4 encoder based on Intel(R) IPP 6.1 build 137.20[6.1.137.763]
Audio
ID : 1
Format : MPEG Audio
Format version : Version 1
Format profile : Layer 3
Mode : Joint stereo
Codec ID : 55
Codec ID/Hint : MP3
Duration : 1h 31mn
Bit rate mode : Constant
Bit rate : 128 Kbps
Channel(s) : 2 channels
Sampling rate : 48.0 KHz
Stream size : 83.4 MiB (12%)
Alignment : Split accross interleaves
Interleave, duration : 40 ms (1.00 video frame)
Interleave, preload duration : 500 ms
Writing library : LAME3.98.2

Скриншот c названием фильма

Скриншоты

Скачать

Скачать торрент!

Как скачивать? · Что такое торрент? · Рейтинг и ограничения

Сайт не распространяет и не хранит электронные версии произведений, а лишь предоставляет доступ к создаваемому пользователями каталогу ссылок на торрент-файлы, которые содержат только списки хеш-сумм

[Профиль] [ЛС]
Показать сообщения:    
Ответить на тему

Текущее время: Сегодня 18:28

Часовой пояс: GMT + 4



Вы не можете начинать темы
Вы не можете отвечать на сообщения
Вы не можете редактировать свои сообщения
Вы не можете удалять свои сообщения
Вы не можете голосовать в опросах
Вы не можете прикреплять файлы к сообщениям
Вы не можете скачивать файлы