45 секунд / Сорок пять секунд (Владимир Басов, Ольга Басова) [2012, мелодрама, HDTVRip]

Ответить на тему
 
Автор Сообщение

user ®

Стаж: 7 лет 7 месяцев

Сообщений: 20008

Пост Пост: #1 от 01-Авг-2013 09:35

[Цитировать]

45 секунд / Сорок пять секунд
Жанр: мелодрама
Год выпуска: 2012
Продолжительность: 01:35:53
Режиссёр: Владимир Басов младший, Ольга Басова
В ролях: Ольга Ломоносова, Григорий Антипенко, Алиса Гребенщикова, Андрей Казаков, Светлана Фролова, Александр Константинов, Людмила Гамуряк, Владимир Басов младший, Олег Кузнецов, Анатолий Кот, Юрий Смирнов, Андрей Вальц, Иван Гордиенко, Людмила Светлова, Дмитрий Котов, Антон Сотников, Алиса Ярославская, Максим Кармен
Описание: 45 секунд - именно то короткое время, за которое изменилась жизнь героев картины. Главная героиня - Татьяна Чернигова, успешная бизнес-леди, бывшая бесстрашная альпинистка, тяжело переживает семейную драму - неудачные попытки родить ребенка. Беда не приходит одна, и на фоне психологических переживаний героини разыгрывается криминально-детективная трагедия, виновницей которой, по мнению свидетелей и участников, становится она...
Доп. информация:
Релиз от:
Семпл: http://multi-up.com/852164
Качество видео: HDTVRip
Формат видео: AVI
Видео: 720x400 (1.80:1), 25 fps, XviD 1.2.1, 1842 kbps avg, 0.26 bit/pixel
Аудио: 48 kHz, AC3 Dolby Digital, 2/0 (L,R) ch, 192.00 kbps avg

MI

General
Complete name : 45.sekund.2013.XviD.HDTVRip.Files-x.avi
Format : AVI
Format/Info : Audio Video Interleave
File size : 1.37 GiB
Duration : 1h 35mn
Overall bit rate : 2 044 Kbps
Writing application : VirtualDubMod 1.5.10.3 (build 2550/release)
Writing library : VirtualDubMod build 2550/release
Video
ID : 0
Format : MPEG-4 Visual
Format profile : Advanced Simple@L5
Format settings, BVOP : 1
Format settings, QPel : No
Format settings, GMC : No warppoints
Format settings, Matrix : Default (H.263)
Codec ID : XVID
Codec ID/Hint : XviD
Duration : 1h 35mn
Bit rate : 1 842 Kbps
Width : 720 pixels
Height : 400 pixels
Display aspect ratio : 16:9
Frame rate : 25.000 fps
Color space : YUV
Chroma subsampling : 4:2:0
Bit depth : 8 bits
Scan type : Progressive
Compression mode : Lossy
Bits/(Pixel*Frame) : 0.256
Stream size : 1.23 GiB (90%)
Writing library : XviD 1.2.1 (UTC 2008-12-04)
Audio
ID : 1
Format : AC-3
Format/Info : Audio Coding 3
Mode extension : CM (complete main)
Format settings, Endianness : Big
Codec ID : 2000
Duration : 1h 35mn
Bit rate mode : Constant
Bit rate : 192 Kbps
Channel(s) : 2 channels
Channel positions : Front: L R
Sampling rate : 48.0 KHz
Bit depth : 16 bits
Compression mode : Lossy
Stream size : 132 MiB (9%)
Alignment : Split accross interleaves
Interleave, duration : 40 ms (1.00 video frame)
Interleave, preload duration : 500 ms

Скриншот c названием фильма

Скриншоты

Скачать

Скачать торрент!

Как скачивать? · Что такое торрент? · Рейтинг и ограничения

Сайт не распространяет и не хранит электронные версии произведений, а лишь предоставляет доступ к создаваемому пользователями каталогу ссылок на торрент-файлы, которые содержат только списки хеш-сумм

[Профиль] [ЛС]
Показать сообщения:    
Ответить на тему

Текущее время: Сегодня 18:22

Часовой пояс: GMT + 4



Вы не можете начинать темы
Вы не можете отвечать на сообщения
Вы не можете редактировать свои сообщения
Вы не можете удалять свои сообщения
Вы не можете голосовать в опросах
Вы не можете прикреплять файлы к сообщениям
Вы не можете скачивать файлы