Собиратель пуль (Александр Вартанов) [2011, драма, WEB-DLRip]

Ответить на тему
 
Автор Сообщение

user ®

Стаж: 7 лет 7 месяцев

Сообщений: 20008

Пост Пост: #1 от 01-Авг-2013 09:35

[Цитировать]

Собиратель пуль
Жанр: драма
Год выпуска: 2011
Продолжительность: 02:01:04
Режиссёр: Александр Вартанов / Aleksandr Vartanov
В ролях: Руслан Назаренко, Александр Усердин, Анастасия Лагоша, Алексей Розин, Юлия Ауг, Сергей Шнуров, Алиса Хазанова, Анатолий Хропов, Марьяна Черенкова, Евгений Ольшанский
Описание: По пьесе писателя Юрия Клавдиева.
Фильм - образец настоящего искусства. Вполне вписывается в один ряд с работами лучших современных отечественных режиссёров (Серебренников, Мизгирёв, Сигарев, Сегал, Звягинцев, Юфит). Очень хороший и оригинальный киноязык, даже трудно сказать - на кого это похоже. Местами - гиперреализм в духе Германа-старшего, а местами - прекрасный шизофренический бред, вызывающий отдалённые ассоциации с Шиньей Цукамото и первым фильмом Даррена Аранофски. Все составляющие компоненты фильма на очень приличном уровне: режиссура, операторская работа, актёрская игра, сюжет, диалоги. Особенно замечателен эпизод "Мертвец". И прекрасна сама атмосфера фильма, колеблющаяся от жестокого, грязного реализма до какого-то поэтического безумия на грани сюрреализма.
Доп. информация: Фильм очень специфичный, на любителя. Для многих покажется полнейшим бредом. На мой взгляд, задачей режиссёра было отразить внутренний психологический мир трудного подростка, показать этапы ломки психики под воздействием экстремальных стрессовых ситуаций. Гениальность в том, что автору удалось отобразить границу равновесия человеческого сознания - адекватного и близкого к шизофрении. Сцены смелые, местами отвратительные, шокирующие, но зато их никак нельзя назвать надуманными. Реалии современной жизни, если хотите. Многоплановость заключена в нескольких моментах. Это отдельно взятый индивид, кстати, почти среднестатистичный, помещённый в атмосферу зла и насилия, пытающийся остаться в здравом уме. И одновременно это - болезнь общества, системы, порождающая таких подростков, как главный герой. Первая половина фильма чем-то напомнила творчество Зюзкинда ("Меланхолия"), хотя в конце немного намешано и слишком уж "сказочно". Но фильм, однозначно, эксклюзивный. Не чета штампованному ширпотребу.
От автора Юрия Клавдиева: "Нам не дали прокатного удостоверения, так как мы не использовали государственные деньги и с нашего бюджета чиновники от кино не получили откатов, нас не пустили на "Кинотавр" с издевательской формулировкой "это не кино", наш фильм смотрели в итоге полтора человека на просторах необъятной даже не Родины, а только Москвы, но он неплохо идёт в Европах и даже в Чили, говорят, показывали. Я писал к нему сценарий по собственной пьесе, которая была во много автобиографична. Не то, чтобы я был школьным омегой, но где-то и около, и много дружил с такими пацанами - а они удивительные друзья и прекрасные собеседники, а также незаменимые товарищи по играм."
Сэмпл: http://multi-up.com/852042
Качество видео: WEB-DLRip
Формат видео: AVI
Видео: 720x400 (1.80:1), 23.976 fps, XviD MPEG-4 ~1524 kbps avg, 0.22 bit/pixel
Аудио: 48 kHz, AC3 Dolby Digital, 2/0 (L,R) ch, ~192 kbps

MediaInfo

Общее
Полное имя : Собиртель пуль.2011.avi
Формат : AVI
Формат/Информация : Audio Video Interleave
Размер файла : 1,46 Гбайт
Продолжительность : 2 ч. 1 м.
Общий поток : 1726 Кбит/сек
Программа кодирования : VirtualDubMod 1.5.10.3 ||| (build 2550/release)
Библиотека кодирования : VirtualDubMod build 2550/release
Видео
Идентификатор : 0
Формат : MPEG-4 Visual
Профиль формата : Advanced Simple@L5
Параметр BVOP формата : 2
Параметр QPel формата : Нет
Параметр GMC формата : Без точки перехода
Параметр матрицы формата : Default (MPEG)
Режим смешивания : Сжатый битовый поток
Идентификатор кодека : XVID
Идентификатор кодека/Подсказка : XviD
Продолжительность : 2 ч. 1 м.
Битрейт : 1525 Кбит/сек
Ширина : 720 пикселей
Высота : 400 пикселей
Соотношение сторон : 16:9
Частота кадров : 23,976 кадра/сек
Цветовое пространство : YUV
Субдискретизация насыщенности : 4:2:0
Битовая глубина : 8 бит
Тип развёртки : Прогрессивная
Метод сжатия : С потерями
Бит/(Пиксели*Кадры) : 0.221
Размер потока : 1,29 Гбайт (88%)
Библиотека кодирования : XviD 1.2.1 (UTC 2008-12-04)
Аудио
Идентификатор : 1
Формат : AC-3
Формат/Информация : Audio Coding 3
Расширение режима : CM (complete main)
Параметр Endianness формата : Big
Идентификатор кодека : 2000
Продолжительность : 2 ч. 1 м.
Вид битрейта : Постоянный
Битрейт : 192 Кбит/сек
Каналы : 2 канала
Расположение каналов : Front: L R
Частота : 48,0 КГц
Битовая глубина : 16 бит
Метод сжатия : С потерями
Размер потока : 166 Мбайт (11%)
Выравнивание : Разделение по промежуткам
Продолжительность промежутка : 42 мс. (1,00 видеокадр)
Время предзагрузки промежутка : 500 мс.

Скриншот c названием фильма

Скриншоты



Скачать

Скачать торрент!

Как скачивать? · Что такое торрент? · Рейтинг и ограничения

Сайт не распространяет и не хранит электронные версии произведений, а лишь предоставляет доступ к создаваемому пользователями каталогу ссылок на торрент-файлы, которые содержат только списки хеш-сумм

[Профиль] [ЛС]
Показать сообщения:    
Ответить на тему

Текущее время: Сегодня 16:30

Часовой пояс: GMT + 4



Вы не можете начинать темы
Вы не можете отвечать на сообщения
Вы не можете редактировать свои сообщения
Вы не можете удалять свои сообщения
Вы не можете голосовать в опросах
Вы не можете прикреплять файлы к сообщениям
Вы не можете скачивать файлы