Что творят мужчины! (Сарик Андреасян) [2013, комедия, BDRip-AVC]

Ответить на тему
 
Автор Сообщение

user ®

Стаж: 7 лет 7 месяцев

Сообщений: 20008

Пост Пост: #1 от 01-Авг-2013 09:35

[Цитировать]

Что творят мужчины!
Жанр: комедия
Год выпуска: 2013
Продолжительность: 01:26:36
Режиссёр: Сарик Андреасян
В ролях: Таир Мамедов, Гавриил Гордеев, Константин Крюков, Равшана Куркова, Анна Хилькевич, Кристина Асмус, Дмитрий Нагиев, Андрей Федорцов, Михаил Крылов, Виктория Таранец, Андрей Свиридов, Михаил Павлик, Екатерина Скулкина, Роман Юнусов, Алексей Лихницкий, Дарья Астафьева, Иван Руденко, Наталия Медведева, Борис Полунин
Описание: Неприступные женщины, полмиллиона долларов и четверо героев, которым предстоит принять участие в игре «Секс-лото», организованной экстравагантным миллионером. Суть игры — за пять дней соблазнить как можно больше женщин на морском курорте. Получив задания, великолепная четверка бросается в бой. Все "цели" совсем непростые — бабушка, жена олигарха, девственница, феминистка, сектантка, и приз получит только лучший. Каждый применит свой фирменный арсенал, и все будут близки к тому, чтобы получить заветный куш, записав новых жертв в список своих мужских побед. Но...
Доп. информация:
Бюджет: $2 000 000
Сборы в мире: $11 300 000
Сборы в России: $9 924 904

Семпл: http://multi-up.com/853420
Качество видео: BDRip-AVC
Формат видео: MKV
Видео: AVC (H264), 1060x478 (2.20:1), 24.00 fps, 1967 Kbps
Аудио: Dolby AC3, 48.0 KHz, 6 ch, 448 kbps

MediaInfo

General
Unique ID : 231255149651365509594754818441174721014 (0xADFA1F2B0E529B4890D510134F4A21F6)
Complete name : C:\Фильмы\Chto.Tvorjat.Muzhchiny!.2013.O.BDRip.x264.potroks.mkv
Format : Matroska
Format version : Version 4 / Version 2
File size : 1.46 GiB
Duration : 1h 26mn
Overall bit rate : 2 415 Kbps
Movie name : -=POTROKS=-
Encoded date : UTC 2013-03-26 00:48:12
Writing application : mkvmerge v5.9.0 ('On The Loose') built on Dec 15 2012 16:39:58
Writing library : libebml v1.3.0 + libmatroska v1.4.0
Video #1
ID : 1
Format : AVC
Format/Info : Advanced Video Codec
Format profile : High@L4.1
Format settings, CABAC : Yes
Format settings, ReFrames : 10 frames
Muxing mode : Header stripping
Codec ID : V_MPEG4/ISO/AVC
Duration : 1h 26mn
Bit rate : 1 967 Kbps
Width : 1 060 pixels
Height : 478 pixels
Display aspect ratio : 2.2:1
Frame rate mode : Constant
Frame rate : 24.000 fps
Color space : YUV
Chroma subsampling : 4:2:0
Bit depth : 8 bits
Scan type : Progressive
Bits/(Pixel*Frame) : 0.162
Stream size : 1.16 GiB (79%)
Title : Что творят мужчины!
Writing library : x264 core 125 r2208 d9d2288
Encoding settings : cabac=1 / ref=10 / deblock=1:-2:-1 / analyse=0x3:0x133 / me=umh / subme=11 / psy=1 / psy_rd=1.10:0.10 / mixed_ref=1 / me_range=32 / chroma_me=1 / trellis=2 / 8x8dct=1 / cqm=0 / deadzone=21,11 / fast_pskip=0 / chroma_qp_offset=-3 / threads=6 / lookahead_threads=1 / sliced_threads=0 / nr=0 / decimate=1 / interlaced=0 / bluray_compat=0 / constrained_intra=0 / bframes=11 / b_pyramid=2 / b_adapt=2 / b_bias=0 / direct=3 / weightb=1 / open_gop=0 / weightp=2 / keyint=240 / keyint_min=23 / scenecut=40 / intra_refresh=0 / rc_lookahead=150 / rc=2pass / mbtree=1 / bitrate=1967 / ratetol=1.0 / qcomp=0.70 / qpmin=0 / qpmax=69 / qpstep=4 / cplxblur=20.0 / qblur=0.5 / vbv_maxrate=20000 / vbv_bufsize=25000 / nal_hrd=none / ip_ratio=1.35 / aq=1:0.80
Language : Russian
Default : Yes
Forced : No
Audio #2
ID : 2
Format : AC-3
Format/Info : Audio Coding 3
Mode extension : CM (complete main)
Format settings, Endianness : Big
Muxing mode : Header stripping
Codec ID : A_AC3
Duration : 1h 26mn
Bit rate mode : Constant
Bit rate : 448 Kbps
Channel(s) : 6 channels
Channel positions : Front: L C R, Side: L R, LFE
Sampling rate : 48.0 KHz
Bit depth : 16 bits
Compression mode : Lossy
Stream size : 278 MiB (19%)
Title : DD 5.1 @ 448 kbps
Language : Russian
Default : Yes
Forced : No

Скриншот c названием фильма

Скриншоты

Скачать

Скачать торрент!

Как скачивать? · Что такое торрент? · Рейтинг и ограничения

Сайт не распространяет и не хранит электронные версии произведений, а лишь предоставляет доступ к создаваемому пользователями каталогу ссылок на торрент-файлы, которые содержат только списки хеш-сумм

[Профиль] [ЛС]
Показать сообщения:    
Ответить на тему

Текущее время: Сегодня 01:44

Часовой пояс: GMT + 4



Вы не можете начинать темы
Вы не можете отвечать на сообщения
Вы не можете редактировать свои сообщения
Вы не можете удалять свои сообщения
Вы не можете голосовать в опросах
Вы не можете прикреплять файлы к сообщениям
Вы не можете скачивать файлы