Стальная бабочка (Ренат Давлетьяров) [2012, драма, криминал, детектив, BDRip-AVC]

Ответить на тему
 
Автор Сообщение

user ®

Стаж: 7 лет 7 месяцев

Сообщений: 20008

Пост Пост: #1 от 01-Авг-2013 09:35

[Цитировать]

Стальная бабочка
Жанр: драма, криминал, детектив
Год выпуска: 2012
Продолжительность: 01:46:41
Навигация по главам: есть
Субтитры: нет
Режиссер: Ренат Давлетьяров
В ролях: Дарья Мельникова, Анатолий Белый, Дарья Мороз, Пётр Винс, Андрей Казаков, Виктор Немец, Елена Галибина, Максим Дромашко, Мария Наумова, Семен Трескунов, Дмитрий Прищепа, Андрей Лебедев, Наталья Яськова, Полина Ганшина, Наталья Пешкова, Владислав Неронов, Георгий Ермилов, Геннадий Христенко, Николай Качура
Описание: Банда беспризорников во главе с юной Чумой зарабатывает на пропитание дерзкими ограблениями. Попавшись в очередной раз на разбое, Чума вынуждена под давлением полиции стать живой приманкой для серийного убийцы. Если она пополнит список жертв, искать ее никто не станет. Почерк маньяка одинаков, все девушки похожи, а место охоты — лесной массив на окраине Москвы. Для опера Ханина поимка монстра - не просто вопрос чести, но и цена погон. А для Чумы — цена свободы. Общая цель сближает юную беспризорницу и взрослого циничного опера...

Релиз: fanatus
Исходник: Blu-Ray (1080p)
Качество видео: BDRip-AVC
Контейнер: MKV
Видео: AVC x264, 1280x720 (16:9), 24.000 fps, 2475 kbps, 0.112 bit/pixel
Аудио: AC3, 6 ch, 48 kHz, 448 kbps

MediaInfo

General
Unique ID : 224686032924900553757105683552565245303 (0xA908F4B52DB0FC059A1E47A0D794B577)
Complete name : D:\Stalnaja.babochka.2012.x264.BDRip.(AVC).fanatus.mkv
Format : Matroska
Format version : Version 2
File size : 2.18 GiB
Duration : 1h 46mn
Overall bit rate : 2 920 Kbps
Movie name : Stalnaja babochka (2012) - fanatus
Encoded date : UTC 2013-01-01 22:04:08
Writing application : mkvmerge v3.4.0 ('Rapunzel') сборка от May 15 2010 09:38:20
Writing library : libebml v0.8.0 + libmatroska v0.9.0
Attachment : Yes
Video
ID : 1
Format : AVC
Format/Info : Advanced Video Codec
Format profile : High@L4.1
Format settings, CABAC : Yes
Format settings, ReFrames : 9 frames
Codec ID : V_MPEG4/ISO/AVC
Duration : 1h 46mn
Bit rate : 2 475 Kbps
Width : 1 280 pixels
Height : 720 pixels
Display aspect ratio : 16:9
Frame rate : 24.000 fps
Color space : YUV
Chroma subsampling : 4:2:0
Bit depth : 8 bits
Scan type : Progressive
Bits/(Pixel*Frame) : 0.112
Stream size : 1.80 GiB (83%)
Title : Stalnaja babochka (2012)
Writing library : x264 core 129 r2230 1cffe9f
Encoding settings : cabac=1 / ref=9 / deblock=1:-2:-2 / analyse=0x3:0x113 / me=umh / subme=11 / psy=1 / psy_rd=0.95:0.00 / mixed_ref=1 / me_range=48 / chroma_me=1 / trellis=2 / 8x8dct=1 / cqm=0 / deadzone=21,11 / fast_pskip=0 / chroma_qp_offset=-2 / threads=16 / lookahead_threads=2 / sliced_threads=0 / nr=0 / decimate=0 / interlaced=0 / bluray_compat=0 / constrained_intra=0 / bframes=11 / b_pyramid=2 / b_adapt=2 / b_bias=0 / direct=3 / weightb=1 / open_gop=0 / weightp=2 / keyint=240 / keyint_min=24 / scenecut=40 / intra_refresh=0 / rc_lookahead=40 / rc=2pass / mbtree=0 / bitrate=2475 / ratetol=1.0 / qcomp=0.60 / qpmin=0 / qpmax=69 / qpstep=3 / cplxblur=20.0 / qblur=0.5 / vbv_maxrate=50000 / vbv_bufsize=62500 / nal_hrd=none / ip_ratio=1.35 / pb_ratio=1.25 / aq=1:0.95
Language : Russian
Default : Yes
Forced : No
Matrix coefficients : BT.709-5, BT.1361, IEC 61966-2-4 709, SMPTE RP177
Audio
ID : 2
Format : AC-3
Format/Info : Audio Coding 3
Mode extension : CM (complete main)
Format settings, Endianness : Big
Codec ID : A_AC3
Duration : 1h 46mn
Bit rate mode : Constant
Bit rate : 448 Kbps
Channel(s) : 6 channels
Channel positions : Front: L C R, Side: L R, LFE
Sampling rate : 48.0 KHz
Bit depth : 16 bits
Compression mode : Lossy
Stream size : 342 MiB (15%)
Title : Original
Language : Russian
Default : Yes
Forced : No
Menu
00:00:00.000 : en:Chapter 0
00:00:43.916 : en:Chapter 1
00:09:05.833 : en:Chapter 2
00:23:03.833 : en:Chapter 3
00:34:57.333 : en:Chapter 4
00:52:50.541 : en:Chapter 5
01:11:15.958 : en:Chapter 6
01:22:36.500 : en:Chapter 7
01:40:52.416 : en:Chapter 8

x264 [info]

-[NoImage] raw [info]: 1280x720p 1:1 @ 24/1 fps (cfr)
-[NoImage] x264 [info]: using SAR=1/1
-[NoImage] x264 [info]: using cpu capabilities: MMX2 SSE2Fast FastShuffle SSEMisalign LZCNT
-[NoImage] x264 [info]: profile High, level 4.1
-[NoImage]
-[NoImage] x264 [info]: frame I:1107 Avg QP:16.27 size: 98705
-[NoImage] x264 [info]: frame P:33796 Avg QP:19.05 size: 26614
-[NoImage] x264 [info]: frame B:118734 Avg QP:20.37 size: 8135
-[NoImage] x264 [info]: consecutive B-frames: 1.8% 2.4% 9.5% 23.0% 17.6% 36.9% 4.3% 2.2% 1.0% 0.3% 0.5% 0.4%
-[NoImage] x264 [info]: mb I I16..4: 9.2% 73.3% 17.5%
-[NoImage] x264 [info]: mb P I16..4: 3.1% 9.7% 1.6% P16..4: 36.2% 33.6% 8.1% 0.0% 0.0% skip: 7.9%
-[NoImage] x264 [info]: mb B I16..4: 0.6% 1.0% 0.1% B16..8: 33.6% 15.1% 1.9% direct: 3.7% skip:44.0% L0:43.1% L1:47.8% BI: 9.1%
-[NoImage] x264 [info]: 8x8 transform intra:65.9% inter:65.1%
-[NoImage] x264 [info]: direct mvs spatial:97.8% temporal:2.2%
-[NoImage] x264 [info]: coded y,uvDC,uvAC intra: 56.8% 60.6% 31.4% inter: 14.2% 15.5% 3.9%
-[NoImage] x264 [info]: i16 v,h,dc,p: 46% 15% 6% 33%
-[NoImage] x264 [info]: i8 v,h,dc,ddl,ddr,vr,hd,vl,hu: 10% 7% 14% 9% 12% 13% 12% 11% 12%
-[NoImage] x264 [info]: i4 v,h,dc,ddl,ddr,vr,hd,vl,hu: 15% 10% 15% 7% 12% 12% 11% 9% 10%
-[NoImage] x264 [info]: i8c dc,h,v,p: 31% 32% 20% 17%
-[NoImage] x264 [info]: Weighted P-Frames: Y:2.2% UV:1.1%
-[NoImage] x264 [info]: ref P L0: 48.9% 9.2% 17.7% 6.6% 5.3% 4.1% 3.6% 2.2% 2.1% 0.3% 0.0%
-[NoImage] x264 [info]: ref B L0: 73.3% 11.9% 6.0% 3.0% 2.3% 1.9% 1.2% 0.4%
-[NoImage] x264 [info]: ref B L1: 91.9% 8.1%
-[NoImage] x264 [info]: kb/s:2467.63
-[NoImage] encoded 153637 frames, 8.75 fps, 2467.63 kb/s

Скриншот c названием фильма

Source vs Rip




Скачать

Скачать торрент!

Как скачивать? · Что такое торрент? · Рейтинг и ограничения

Сайт не распространяет и не хранит электронные версии произведений, а лишь предоставляет доступ к создаваемому пользователями каталогу ссылок на торрент-файлы, которые содержат только списки хеш-сумм

[Профиль] [ЛС]
Показать сообщения:    
Ответить на тему

Текущее время: Сегодня 18:41

Часовой пояс: GMT + 4



Вы не можете начинать темы
Вы не можете отвечать на сообщения
Вы не можете редактировать свои сообщения
Вы не можете удалять свои сообщения
Вы не можете голосовать в опросах
Вы не можете прикреплять файлы к сообщениям
Вы не можете скачивать файлы