Комната потерянных игрушек (Александр Робак) [2007, триллер, психологический детектив, DVB]

Ответить на тему
 
Автор Сообщение

user ®

Стаж: 7 лет 7 месяцев

Сообщений: 20008

Пост Пост: #1 от 01-Авг-2013 09:35

[Цитировать]

Комната потерянных игрушек (4 серии)
Жанр: триллер, психологический детектив
Год выпуска: 2007
Продолжительность: 00:49:33 + 00:48:39 + 00:51:14 + 00:48:28
Режиссёр: Александр Робак
В ролях: Дмитрий Шевченко, Владимир Зайцев, Владимир Симонов, Максим Лагашкин, Екатерина Стулова, Александр Робак, Татьяна Черкасова, Диана Шпак, Юрий Митрофанов, Игорь Марычев, Николай Хмелёв, Никита Тарасов, Олег Казанчеев, Юрий Ваксман, Владимир Гусев, Сергей Цепов, Олег Абрамов, Роман Тындык, Рамзес Джабраилов, Николай Шатохин, Алексей Дмитриев, Дмитрий Прокофьев, Станислав Костецкий, Владимир Котов, Максим Марченко, Марк Гаврилов, Михаил Кац, Алексей Чадов (закадровый текст)
Описание: Майор уголовного розыска Руслан Кутыев расследует серию загадочных убийств, странным образом связанных с именем журналиста Сергея Турина. На телах жертв преступник оставляет письма, адресованные журналисту, и его фотографии. В одном из писем упоминается некая "Комната потерянных игрушек". Журналист категорически отрицает свою причастность к убийствам, но вспоминает, что уже слышал когда-то о "Комнате потерянных игрушек" от своего старого приятеля-художника: тот говорил однажды, что существует VIP-клуб с таким названием. Но узнать подробности у самого художника не удалось. Не доверяя друг другу, Руслан и Сергей пытаются разобраться, кто стоит за убийствами...
Доп. информация: Запись потока *.ts со спутника EUTELSAT, ремукс в *.mpg программой VideoReDo.
Семпл: http://multi-up.com/854669
Качество видео: DVB
Формат видео: MPEG-PS
Видео: MPEG2 Video, 720x576 (4:3), 25,000 кадров/сек, 3387 Кбит/сек
Аудио: MPEG Audio, 48,0 КГц, 192 Кбит/сек, 2 канала

MediaInfo

Общее
Полное имя : G:\Torrent\КОМНАТА ПОТЕРЯННЫХ ИГРУШЕК\КОМНАТА ПОТЕРЯННЫХ ИГРУШЕК 1 (Дом Кино).mpg
Формат : MPEG-PS
Размер файла : 1,26 Гбайт
Продолжительность : 49 м.
Режим общего битрейта : Переменный
Общий поток : 3652 Кбит/сек
Видео
Идентификатор : 224 (0xE0)
Формат : MPEG Video
Версия формата : Version 2
Профиль формата : Main@Main
Параметр BVOP формата : Да
Параметр матрицы формата : Выборочная
Параметр GOP формата : M=3, N=12
Продолжительность : 49 м.
Вид битрейта : Переменный
Битрейт : 3387 Кбит/сек
Максимальный битрейт : 5000 Кбит/сек
Ширина : 720 пикселей
Высота : 576 пикселей
Соотношение сторон : 4:3
Частота кадров : 25,000 кадров/сек
Стандарт вещания : PAL
Цветовое пространство : YUV
Субдискретизация насыщенности : 4:2:0
Битовая глубина : 8 бит
Тип развёртки : Чересстрочная
Порядок развёртки : Верхнее поле первое
Метод сжатия : С потерями
Бит/(Пиксели*Кадры) : 0.327
Размер потока : 1,17 Гбайт (93%)
Аудио
Идентификатор : 192 (0xC0)
Формат : MPEG Audio
Версия формата : Version 1
Профиль формата : Layer 2
Продолжительность : 49 м.
Вид битрейта : Постоянный
Битрейт : 192 Кбит/сек
Каналы : 2 канала
Частота : 48,0 КГц
Метод сжатия : С потерями
Размер потока : 68,1 Мбайт (5%)
Общее
Полное имя : G:\Torrent\КОМНАТА ПОТЕРЯННЫХ ИГРУШЕК\КОМНАТА ПОТЕРЯННЫХ ИГРУШЕК 2 (Дом Кино).mpg
Формат : MPEG-PS
Размер файла : 1,25 Гбайт
Продолжительность : 48 м.
Режим общего битрейта : Переменный
Общий поток : 3674 Кбит/сек
Видео
Идентификатор : 224 (0xE0)
Формат : MPEG Video
Версия формата : Version 2
Профиль формата : Main@Main
Параметр BVOP формата : Да
Параметр матрицы формата : Выборочная
Параметр GOP формата : M=3, N=12
Продолжительность : 48 м.
Вид битрейта : Переменный
Битрейт : 3409 Кбит/сек
Максимальный битрейт : 5000 Кбит/сек
Ширина : 720 пикселей
Высота : 576 пикселей
Соотношение сторон : 4:3
Частота кадров : 25,000 кадров/сек
Стандарт вещания : PAL
Цветовое пространство : YUV
Субдискретизация насыщенности : 4:2:0
Битовая глубина : 8 бит
Тип развёртки : Чересстрочная
Порядок развёртки : Верхнее поле первое
Метод сжатия : С потерями
Бит/(Пиксели*Кадры) : 0.329
Размер потока : 1,16 Гбайт (93%)
Аудио
Идентификатор : 192 (0xC0)
Формат : MPEG Audio
Версия формата : Version 1
Профиль формата : Layer 2
Продолжительность : 48 м.
Вид битрейта : Постоянный
Битрейт : 192 Кбит/сек
Каналы : 2 канала
Частота : 48,0 КГц
Метод сжатия : С потерями
Размер потока : 66,8 Мбайт (5%)
Общее
Полное имя : G:\Torrent\КОМНАТА ПОТЕРЯННЫХ ИГРУШЕК\КОМНАТА ПОТЕРЯННЫХ ИГРУШЕК 3 (Дом Кино).mpg
Формат : MPEG-PS
Размер файла : 1,32 Гбайт
Продолжительность : 51 м.
Режим общего битрейта : Переменный
Общий поток : 3698 Кбит/сек
Видео
Идентификатор : 224 (0xE0)
Формат : MPEG Video
Версия формата : Version 2
Профиль формата : Main@Main
Параметр BVOP формата : Да
Параметр матрицы формата : Выборочная
Параметр GOP формата : M=3, N=12
Продолжительность : 51 м.
Вид битрейта : Переменный
Битрейт : 3433 Кбит/сек
Максимальный битрейт : 5000 Кбит/сек
Ширина : 720 пикселей
Высота : 576 пикселей
Соотношение сторон : 4:3
Частота кадров : 25,000 кадров/сек
Стандарт вещания : PAL
Цветовое пространство : YUV
Субдискретизация насыщенности : 4:2:0
Битовая глубина : 8 бит
Тип развёртки : Чересстрочная
Порядок развёртки : Верхнее поле первое
Метод сжатия : С потерями
Бит/(Пиксели*Кадры) : 0.331
Размер потока : 1,23 Гбайт (93%)
Аудио
Идентификатор : 192 (0xC0)
Формат : MPEG Audio
Версия формата : Version 1
Профиль формата : Layer 2
Продолжительность : 51 м.
Вид битрейта : Постоянный
Битрейт : 192 Кбит/сек
Каналы : 2 канала
Частота : 48,0 КГц
Метод сжатия : С потерями
Размер потока : 70,4 Мбайт (5%)
Общее
Полное имя : G:\Torrent\КОМНАТА ПОТЕРЯННЫХ ИГРУШЕК\КОМНАТА ПОТЕРЯННЫХ ИГРУШЕК 4 (Дом Кино).mpg
Формат : MPEG-PS
Размер файла : 1,28 Гбайт
Продолжительность : 48 м.
Режим общего битрейта : Переменный
Общий поток : 3772 Кбит/сек
Видео
Идентификатор : 224 (0xE0)
Формат : MPEG Video
Версия формата : Version 2
Профиль формата : Main@Main
Параметр BVOP формата : Да
Параметр матрицы формата : Выборочная
Параметр GOP формата : M=3, N=12
Продолжительность : 48 м.
Вид битрейта : Переменный
Битрейт : 3505 Кбит/сек
Максимальный битрейт : 5000 Кбит/сек
Ширина : 720 пикселей
Высота : 576 пикселей
Соотношение сторон : 4:3
Частота кадров : 25,000 кадров/сек
Стандарт вещания : PAL
Цветовое пространство : YUV
Субдискретизация насыщенности : 4:2:0
Битовая глубина : 8 бит
Тип развёртки : Чересстрочная
Порядок развёртки : Верхнее поле первое
Метод сжатия : С потерями
Бит/(Пиксели*Кадры) : 0.338
Размер потока : 1,19 Гбайт (93%)
Аудио
Идентификатор : 192 (0xC0)
Формат : MPEG Audio
Версия формата : Version 1
Профиль формата : Layer 2
Продолжительность : 48 м.
Вид битрейта : Постоянный
Битрейт : 192 Кбит/сек
Каналы : 2 канала
Частота : 48,0 КГц
Метод сжатия : С потерями
Размер потока : 66,9 Мбайт (5%)

Скриншот c названием фильма

Скриншоты

Скачать

Скачать торрент!

Как скачивать? · Что такое торрент? · Рейтинг и ограничения

Сайт не распространяет и не хранит электронные версии произведений, а лишь предоставляет доступ к создаваемому пользователями каталогу ссылок на торрент-файлы, которые содержат только списки хеш-сумм

[Профиль] [ЛС]
Показать сообщения:    
Ответить на тему

Текущее время: Сегодня 06:23

Часовой пояс: GMT + 4



Вы не можете начинать темы
Вы не можете отвечать на сообщения
Вы не можете редактировать свои сообщения
Вы не можете удалять свои сообщения
Вы не можете голосовать в опросах
Вы не можете прикреплять файлы к сообщениям
Вы не можете скачивать файлы