Мужчина с гарантией (Артём Аксёненко) [2012, романтическая комедия, BDRip-AVC]

Ответить на тему
 
Автор Сообщение

user ®

Стаж: 7 лет 7 месяцев

Сообщений: 20008

Пост Пост: #1 от 01-Авг-2013 09:35

[Цитировать]

Мужчина с гарантией
Жанр: романтическая комедия
Год выпуска: 2012
Продолжительность: 01:24:11
Навигация по главам: есть
Субтитры: нет
Режиссер: Артём Аксёненко
В ролях: Александр Олешко, Нонна Гришаева, Дмитрий Нагиев, Пётр Фёдоров, Ольга Волкова, Юлия Гришина, Дмитрий Шаракоис, Анна Чурина, Андрей Федорцов, Юрий Никулин младший, Михаил Павлик, Дмитрий Росляков, Вячеслав Барковский, Сергей Походаев, Иван Руденко, Михаил Машков, Дарья и Екатерина Носик, Пак Хек Су
Описание: В одном большом и любимом горожанами торговом центре работает охранником необычный человек. Он помогает всем вокруг: продавцам общепита и модной одежды, уборщикам и барменам в кафетерии. Он знает всё и всех, и все знают и любят его. Он - словно домовой в этом огромном здании с миллионом неоновых вывесок и ярких стеклянных витрин. Ведь здесь он не только работает, но и живет полноценной жизнью — бесплатно одевается, питается в ресторанах, спит в мебельном отделе и участвует в ночных гонках на полотерах. «Какой странный персонаж!» — подумаете вы. На самом деле у нашего героя есть хрустальная и загадочная мечта, на осуществление которой он старательно копит деньги на «зарплатной» банковской карте. Но однажды в его жизни появляется стажёрка, которую необходимо обучить всему, что умеет он сам...

Релиз: fanatus
Исходник: Blu-Ray (1080p)
Качество видео: BDRip-AVC
Контейнер: MKV
Видео: AVC x264, 2017 kbps , 1024x436 (2.35:1), 23.976 fps, 0.188 bit/pixel
Аудио: AC3, 6 ch, 48 kHz, 448 kbps

MediaInfo

General
Unique ID : 248275354378437584984805919596592647430 (0xBAC8180CC8E005EA9F8AEE4692CE4D06)
Complete name : D:\Muzhchina.s.garantiej.2012.x264.BDRip.(AVC).fanatus.mkv
Format : Matroska
Format version : Version 2
File size : 1.45 GiB
Duration : 1h 24mn
Overall bit rate : 2 465 Kbps
Movie name : Muzhchina s garantiey (2012) - fanatus
Encoded date : UTC 2012-10-25 05:03:58
Writing application : mkvmerge v3.4.0 ('Rapunzel') сборка от May 15 2010 09:38:20
Writing library : libebml v0.8.0 + libmatroska v0.9.0
Video
ID : 1
Format : AVC
Format/Info : Advanced Video Codec
Format profile : High@L4.1
Format settings, CABAC : Yes
Format settings, ReFrames : 10 frames
Codec ID : V_MPEG4/ISO/AVC
Duration : 1h 24mn
Bit rate : 2 017 Kbps
Width : 1 024 pixels
Height : 436 pixels
Display aspect ratio : 2.35:1
Frame rate : 23.976 fps
Color space : YUV
Chroma subsampling : 4:2:0
Bit depth : 8 bits
Scan type : Progressive
Bits/(Pixel*Frame) : 0.188
Stream size : 1.16 GiB (80%)
Title : Muzhchina s garantiey (2012)
Writing library : x264 core 128 r2216 198a7ea
Encoding settings : cabac=1 / ref=10 / deblock=1:-1:-1 / analyse=0x3:0x113 / me=umh / subme=11 / psy=1 / psy_rd=0.95:0.00 / mixed_ref=1 / me_range=32 / chroma_me=1 / trellis=2 / 8x8dct=1 / cqm=0 / deadzone=21,11 / fast_pskip=0 / chroma_qp_offset=-2 / threads=16 / lookahead_threads=2 / sliced_threads=0 / nr=0 / decimate=0 / interlaced=0 / bluray_compat=0 / constrained_intra=0 / bframes=10 / b_pyramid=2 / b_adapt=2 / b_bias=0 / direct=3 / weightb=1 / open_gop=0 / weightp=2 / keyint=240 / keyint_min=23 / scenecut=40 / intra_refresh=0 / rc_lookahead=240 / rc=2pass / mbtree=1 / bitrate=2017 / ratetol=1.0 / qcomp=0.60 / qpmin=10 / qpmax=69 / qpstep=3 / cplxblur=20.0 / qblur=0.5 / vbv_maxrate=50000 / vbv_bufsize=62500 / nal_hrd=none / ip_ratio=1.40 / aq=1:1.05
Language : Russian
Default : Yes
Forced : No
Matrix coefficients : BT.709-5, BT.1361, IEC 61966-2-4 709, SMPTE RP177
Audio
ID : 2
Format : AC-3
Format/Info : Audio Coding 3
Mode extension : CM (complete main)
Format settings, Endianness : Big
Codec ID : A_AC3
Duration : 1h 24mn
Bit rate mode : Constant
Bit rate : 448 Kbps
Channel(s) : 6 channels
Channel positions : Front: L C R, Side: L R, LFE
Sampling rate : 48.0 KHz
Bit depth : 16 bits
Compression mode : Lossy
Stream size : 270 MiB (18%)
Title : Original
Language : Russian
Default : Yes
Forced : No
Menu
00:00:00.000 : en:Chapter 01
00:07:36.455 : en:Chapter 02
00:15:28.677 : en:Chapter 03
00:20:24.181 : en:Chapter 04
00:27:58.426 : en:Chapter 05
00:33:24.544 : en:Chapter 06
00:43:15.593 : en:Chapter 07
00:48:15.058 : en:Chapter 08
00:59:25.103 : en:Chapter 09
01:05:33.095 : en:Chapter 10
01:13:27.277 : en:Chapter 11
01:21:28.300 : en:Chapter 12
01:24:10.962 : en:Chapter 13

x264 [info]

-[NoImage] raw [info]: 1024x436p 1:1 @ 24000/1001 fps (cfr)
-[NoImage] x264 [info]: using SAR=1/1
-[NoImage] x264 [info]: using cpu capabilities: MMX2 SSE2Fast FastShuffle SSEMisalign LZCNT
-[NoImage] x264 [info]: profile High, level 4.1
-[NoImage]
-[NoImage] x264 [info]: frame I:1292 Avg QP:14.82 size: 65826
-[NoImage] x264 [info]: frame P:28727 Avg QP:18.01 size: 23261
-[NoImage] x264 [info]: frame B:91085 Avg QP:21.79 size: 5700
-[NoImage] x264 [info]: consecutive B-frames: 2.7% 3.5% 10.9% 31.6% 14.9% 30.7% 3.0% 1.2% 0.7% 0.5% 0.3%
-[NoImage] x264 [info]: mb I I16..4: 4.4% 67.2% 28.5%
-[NoImage] x264 [info]: mb P I16..4: 1.1% 11.1% 3.0% P16..4: 30.7% 34.2% 13.4% 0.0% 0.0% skip: 6.6%
-[NoImage] x264 [info]: mb B I16..4: 0.2% 1.6% 0.4% B16..8: 31.2% 17.3% 2.9% direct: 4.1% skip:42.3% L0:41.0% L1:41.1% BI:17.8%
-[NoImage] x264 [info]: 8x8 transform intra:72.0% inter:59.1%
-[NoImage] x264 [info]: direct mvs spatial:96.4% temporal:3.6%
-[NoImage] x264 [info]: coded y,uvDC,uvAC intra: 80.7% 81.0% 54.2% inter: 20.4% 16.9% 8.1%
-[NoImage] x264 [info]: i16 v,h,dc,p: 20% 21% 2% 57%
-[NoImage] x264 [info]: i8 v,h,dc,ddl,ddr,vr,hd,vl,hu: 17% 10% 6% 7% 10% 13% 11% 13% 12%
-[NoImage] x264 [info]: i4 v,h,dc,ddl,ddr,vr,hd,vl,hu: 30% 12% 5% 6% 10% 11% 9% 8% 8%
-[NoImage] x264 [info]: i8c dc,h,v,p: 31% 25% 25% 18%
-[NoImage] x264 [info]: Weighted P-Frames: Y:1.9% UV:1.3%
-[NoImage] x264 [info]: ref P L0: 48.2% 11.8% 16.2% 6.3% 4.9% 3.7% 3.2% 1.9% 1.8% 1.7% 0.3% 0.0%
-[NoImage] x264 [info]: ref B L0: 77.8% 9.8% 4.9% 2.4% 1.7% 1.4% 1.1% 0.5% 0.3%
-[NoImage] x264 [info]: ref B L1: 93.7% 6.3%
-[NoImage] x264 [info]: kb/s:2015.36
-[NoImage] encoded 121104 frames, 16.82 fps, 2015.36 kb/s

Скриншот c названием фильма

Скриншоты

Скачать

Скачать торрент!

Как скачивать? · Что такое торрент? · Рейтинг и ограничения

Сайт не распространяет и не хранит электронные версии произведений, а лишь предоставляет доступ к создаваемому пользователями каталогу ссылок на торрент-файлы, которые содержат только списки хеш-сумм

[Профиль] [ЛС]
Показать сообщения:    
Ответить на тему

Текущее время: Сегодня 18:23

Часовой пояс: GMT + 4



Вы не можете начинать темы
Вы не можете отвечать на сообщения
Вы не можете редактировать свои сообщения
Вы не можете удалять свои сообщения
Вы не можете голосовать в опросах
Вы не можете прикреплять файлы к сообщениям
Вы не можете скачивать файлы