Игры мотыльков (Андрей Прошкин) [2004, драма, DVDRip]

Ответить на тему
 
Автор Сообщение

user ®

Стаж: 7 лет 7 месяцев

Сообщений: 20008

Пост Пост: #1 от 01-Авг-2013 09:35

[Цитировать]

Игры мотыльков- Жанр: драма
Год выпуска: 2004
Продолжительность: 01:40:41
Режиссер: Андрей Прошкин
В ролях: Алексей Чадов, Мария Звонарёва, Оксана Акиньшина, Юрий Кузнецов, Андрей Смоляков, Алексей Шевченков, Дарья Екамасова, Полина Головина, Юлия Ломакина, Сергей Шнуров, Сергей Фролов, Андрей Гуркин, Антон Бещук, Владимир Денисов, Вадим Амирханов, Евгений Янин, Дмитрий Дибров, Бари Алибасов, Аркадий Укупник, Анатолий Отраднов
Описание: Шестнадцатилетний рок-музыкант из уральского городка приглашен в Москву на финал телевизионного музыкального конкурса. Накануне отъезда, шатаясь по улице с друзьями, он, переполненный ощущением грядущей удачи, из лихости угоняет автомобиль. Недолгая поездка заканчивается трагедией - ребята сбивают человека и, бросив разбитый автомобиль, убегают. Победителями конкурса жюри объявляет других, а Костя возвращается домой, где ведется следствие. Мать и безответно влюбленная в него девушка готовы на всё, чтобы спасти парня от тюрьмы, но он, ожесточившись от неудач и разочарований, поступает по-своему…- - -Качество видео: DVDRip
Формат видео: AVI
Видео: 720x384 (1.88:1), 25 fps, XviD 1.2.1, 1615 kbps avg, 0.23 bit/pixel
Аудио: 48 kHz, AC3 Dolby Digital, 3/2 (L,C,R,l,r) + LFE ch, 448 kbps
-

Скриншоты

MI

D:\igry motylkov_T05.avi
General
Complete name : D:\igry motylkov_DVDRip_1,45 by dexter lex.avi
Format : AVI
Format/Info : Audio Video Interleave
File size : 1.46 GiB
Duration : 1h 40mn
Overall bit rate : 2 073 Kbps
Writing application : VirtualDubMod 1.5.10.3 (build 2550/release)
Writing library : VirtualDubMod build 2550/release
Video #0
ID : 0
Format : MPEG-4 Visual
Format profile : Advanced Simple@L5
Format settings, BVOP : 1
Format settings, QPel : No
Format settings, GMC : No warppoints
Format settings, Matrix : Custom
Codec ID : XVID
Codec ID/Hint : XviD
Duration : 1h 40mn
Bit rate : 1 615 Kbps
Width : 720 pixels
Height : 384 pixels
Display aspect ratio : 1.88:1
Frame rate : 25.000 fps
Color space : YUV
Chroma subsampling : 4:2:0
Bit depth : 8 bits
Scan type : Progressive
Compression mode : Lossy
Bits/(Pixel*Frame) : 0.234
Stream size : 1.14 GiB (78%)
Writing library : XviD 1.2.1 (UTC 2008-12-04)
Audio #1
ID : 1
Format : AC-3
Format/Info : Audio Coding 3
Mode extension : ME (music and effects)
Format settings, Endianness : Big
Codec ID : 2000
Duration : 1h 40mn
Bit rate mode : Constant
Bit rate : 448 Kbps
Channel(s) : 6 channels
Channel positions : Front: L C R, Side: L R, LFE
Sampling rate : 48.0 KHz
Bit depth : 16 bits
Compression mode : Lossy
Stream size : 323 MiB (22%)
Alignment : Split accross interleaves
Interleave, duration : 40 ms (1.00 video frame)
Interleave, preload duration : 500 ms
Скачать

Скачать торрент!

Как скачивать? · Что такое торрент? · Рейтинг и ограничения

Сайт не распространяет и не хранит электронные версии произведений, а лишь предоставляет доступ к создаваемому пользователями каталогу ссылок на торрент-файлы, которые содержат только списки хеш-сумм

[Профиль] [ЛС]
Показать сообщения:    
Ответить на тему

Текущее время: Сегодня 14:34

Часовой пояс: GMT + 4



Вы не можете начинать темы
Вы не можете отвечать на сообщения
Вы не можете редактировать свои сообщения
Вы не можете удалять свои сообщения
Вы не можете голосовать в опросах
Вы не можете прикреплять файлы к сообщениям
Вы не можете скачивать файлы