Игры мотыльков (Андрей Прошкин) [2004, драма, DVDRip]

Ответить на тему
 
Автор Сообщение

user ®

Стаж: 7 лет 7 месяцев

Сообщений: 20008

Пост Пост: #1 от 01-Авг-2013 09:35

[Цитировать]

Игры мотыльков- Жанр: драма
Год выпуска: 2004
Продолжительность: 01:40:41
Режиссер: Андрей Прошкин
В ролях: Алексей Чадов, Мария Звонарёва, Оксана Акиньшина, Юрий Кузнецов, Андрей Смоляков, Алексей Шевченков, Дарья Екамасова, Полина Головина, Юлия Ломакина, Сергей Шнуров, Сергей Фролов, Андрей Гуркин, Антон Бещук, Владимир Денисов, Вадим Амирханов, Евгений Янин, Дмитрий Дибров, Бари Алибасов, Аркадий Укупник, Анатолий Отраднов
Описание: Шестнадцатилетний рок-музыкант из уральского городка приглашен в Москву на финал телевизионного музыкального конкурса. Накануне отъезда, шатаясь по улице с друзьями, он, переполненный ощущением грядущей удачи, из лихости угоняет автомобиль. Недолгая поездка заканчивается трагедией - ребята сбивают человека и, бросив разбитый автомобиль, убегают. Победителями конкурса жюри объявляет других, а Костя возвращается домой, где ведется следствие. Мать и безответно влюбленная в него девушка готовы на всё, чтобы спасти парня от тюрьмы, но он, ожесточившись от неудач и разочарований, поступает по-своему…- - -Качество видео: DVDRip
Формат видео: AVI
Видео: 624x336 (1.86:1), 25 fps, 1.2.1, 900 kbps avg, 0.17 bit/pixel
Аудио: 48 kHz, MPEG Layer 3, 2 ch, 128.00 kbps avg
-

Скриншоты

MI

D:\igry motylkov_DVDRip_745 by dexter lex.avi
General
Complete name : D:\igry motylkov_DVDRip_745 by dexter lex.avi
Format : AVI
Format/Info : Audio Video Interleave
File size : 747 MiB
Duration : 1h 40mn
Overall bit rate : 1 038 Kbps
Writing application : VirtualDubMod 1.5.10.3 (build 2550/release)
Writing library : VirtualDubMod build 2550/release
Video #0
ID : 0
Format : MPEG-4 Visual
Format profile : Advanced Simple@L5
Format settings, BVOP : 1
Format settings, QPel : No
Format settings, GMC : No warppoints
Format settings, Matrix : Custom
Codec ID : XVID
Codec ID/Hint : XviD
Duration : 1h 40mn
Bit rate : 900 Kbps
Width : 624 pixels
Height : 336 pixels
Display aspect ratio : 1.86:1
Frame rate : 25.000 fps
Color space : YUV
Chroma subsampling : 4:2:0
Bit depth : 8 bits
Scan type : Progressive
Compression mode : Lossy
Bits/(Pixel*Frame) : 0.172
Stream size : 648 MiB (87%)
Writing library : XviD 1.2.1 (UTC 2008-12-04)
Audio #1
ID : 1
Format : MPEG Audio
Format version : Version 1
Format profile : Layer 3
Codec ID : 55
Codec ID/Hint : MP3
Duration : 1h 40mn
Bit rate mode : Constant
Bit rate : 128 Kbps
Channel(s) : 2 channels
Sampling rate : 48.0 KHz
Compression mode : Lossy
Stream size : 92.2 MiB (12%)
Alignment : Aligned on interleaves
Interleave, duration : 40 ms (1.00 video frame)
Interleave, preload duration : 504 ms
Writing library : LAME3.99r
Encoding settings : -m s -V 4 -q 2 -lowpass 17 -b 128

Сравнение

[url=http://***/forum/viewtopic.php?t=170936]http://***/forum/viewtopic.php?t=170936[/url] - с конкурентом
http://screenshotcomparison.com/comparison/19615/ + перекроп, матрица Default (H.263), проблемы совместимости (Muxing mode: Packed bitstream), переменный битрейт аудио, цветокоррекция (осветление)
http://screenshotcomparison.com/comparison/19616/ - сравнение рипа конкурента с исходником
Скачать

Скачать торрент!

Как скачивать? · Что такое торрент? · Рейтинг и ограничения

Сайт не распространяет и не хранит электронные версии произведений, а лишь предоставляет доступ к создаваемому пользователями каталогу ссылок на торрент-файлы, которые содержат только списки хеш-сумм

[Профиль] [ЛС]
Показать сообщения:    
Ответить на тему

Текущее время: Сегодня 21:22

Часовой пояс: GMT + 4



Вы не можете начинать темы
Вы не можете отвечать на сообщения
Вы не можете редактировать свои сообщения
Вы не можете удалять свои сообщения
Вы не можете голосовать в опросах
Вы не можете прикреплять файлы к сообщениям
Вы не можете скачивать файлы