Просто Джексон (Леонид Пляскин) [2012, детектив, криминал, WEB-DLRip]

Ответить на тему
 
Автор Сообщение

user ®

Стаж: 7 лет 7 месяцев

Сообщений: 20008

Пост Пост: #1 от 01-Авг-2013 09:35

[Цитировать]

Просто Джексон- Жанр: детектив, криминал
Год выпуска: 2012
Продолжительность: 01:32:00-Режиссер: Леонид Пляскин
В ролях: Дмитрий Быковский-Ромашов, Андрей Горбачев, Екатерина Суворова, Григорий Орлов, Роман Бокашевский, Андрей Гульнев, Елизавета Прилепская, Сергей Великанов, Андрей Мокеев, Леонид Луценко, Илья Катунцев, Евгений Катаев, Дарья Юргенс, Алексей Назаров-Описание: Расследуя дело о пропаже сына бывшего начальника угрозыска Дегтярёва, опер, майор Евгений Иванов по прозвищу Джексон задерживает возможного подозреваемого - Алексея Ивченко, владельца машины, в который силой увезли похищенного юношу. В салоне автомобиля Джексон находит сумку, доверху набитую деньгами в банковской упаковке, украденными во время последнего из серии ограблений и убийств инкассаторов. Задержанный Ивченко отказывается общаться со следователем Екатериной Хмелёвой, ведущей его дело, но Джексон знает, что Ивченко остаётся единственной ниточкой, связывающей оба дела - похищение Дегтярёва и разбойные нападения на инкассаторские машины...-Доп. информация:
Сценарий: Максим Есаулов, Дмитрий Филиппов, Андрей Романов, Андрей Орлов, Сергей Майоров
Продюсер: Ада Ставиская
Оператор: Александр Штанов
Композитор: Максим Кошеваров, Камиль Абдуллин

-Качество видео: WEB-DLRip
Формат видео: AVI
Видео: 720x400 (16:9), XviD 1.2.1, 1924 kbps, 25 fps, 0,267 bpp
Аудио: AC3 / 2.0 / 48 kHz / 192 kbps / 16 bit-

MI

Полное имя : Prosto.Jackson.2012.O.WEBDLRip.1400.avi
Формат : AVI
Формат/Информация : Audio Video Interleave
Размер файла : 1,37 Гбайт
Продолжительность : 1 ч. 32 м.
Общий поток : 2127 Кбит/сек
Программа кодирования : VirtualDubMod 1.5.10.2 (build 2540/release)
Библиотека кодирования : VirtualDubMod build 2540/release
Видео
Идентификатор : 0
Формат : MPEG-4 Visual
Профиль формата : Advanced Simple@L5
Параметр BVOP формата : 2
Параметр QPel формата : Нет
Параметр GMC формата : Без точки перехода
Параметр матрицы формата : Default (MPEG)
Идентификатор кодека : XVID
Идентификатор кодека/Подсказка : XviD
Продолжительность : 1 ч. 32 м.
Битрейт : 1925 Кбит/сек
Ширина : 720 пикселей
Высота : 400 пикселей
Соотношение сторон : 16:9
Частота кадров : 25,000 кадров/сек
Цветовое пространство : YUV
Субдискретизация насыщенности : 4:2:0
Битовая глубина : 8 бит
Тип развёртки : Прогрессивная
Метод сжатия : С потерями
Бит/(Пиксели*Кадры) : 0.267
Размер потока : 1,24 Гбайт (91%)
Библиотека кодирования : XviD 1.2.1 (UTC 2008-12-04)
Аудио
Идентификатор : 1
Формат : AC-3
Формат/Информация : Audio Coding 3
Расширение режима : CM (complete main)
Параметр Endianness формата : Big
Идентификатор кодека : 2000
Продолжительность : 1 ч. 32 м.
Вид битрейта : Постоянный
Битрейт : 192 Кбит/сек
Каналы : 2 канала
Расположение каналов : Front: L R
Частота : 48,0 КГц
Битовая глубина : 16 бит
Метод сжатия : С потерями
Размер потока : 126 Мбайт (9%)
Выравнивание : Разделение по промежуткам
Продолжительность промежутка : 40 мс. (1,00 видеокадр)
Время предзагрузки промежутка : 500 мс.

Скриншот с названием фильма

Скриншоты

Скачать

Скачать торрент!

Как скачивать? · Что такое торрент? · Рейтинг и ограничения

Сайт не распространяет и не хранит электронные версии произведений, а лишь предоставляет доступ к создаваемому пользователями каталогу ссылок на торрент-файлы, которые содержат только списки хеш-сумм

[Профиль] [ЛС]
Показать сообщения:    
Ответить на тему

Текущее время: Сегодня 21:18

Часовой пояс: GMT + 4



Вы не можете начинать темы
Вы не можете отвечать на сообщения
Вы не можете редактировать свои сообщения
Вы не можете удалять свои сообщения
Вы не можете голосовать в опросах
Вы не можете прикреплять файлы к сообщениям
Вы не можете скачивать файлы